img image001 image001 image001 image001 image001 image001 image001 image001 image001 image001 image001 image001 image001 image001 image001

Planets Sun Sun Sun
Статистика раздачи
Автор: Nickolas3434 | Размер: 1.39 ГБ | Добавлен: 26 май 2015
Раздают: 230    Качают: 4
Скачать торрент
Скачать торрент
Описание торрента

СообщениеДобавлено: 26 май 2015 


Год выпуска: 2015
Страна: США
Жанр: мультфильм, комедия, приключения, семейный
Продолжительность: 01:32:54
Перевод: Дублированный
Режиссер: Пол Тиббит
В ролях: Антонио Бандерас, Том Кенни, Эрик Бауза, Тим Конуэй, Эдди Дизен, Роб Полсен, Кевин Майкл Ричардсон, Эйприл Стюарт, Кри Саммер, Билли Уэст, Карлос Аласраки, Нолан Норт, Пол Тиббит, Билл Фагербакки, Роджер Бампасс, Мистер Лоуренс, Джилл Тэлли, Ди Брэдли Бэйкер, Клэнси Браун, Кэролин Лоуренс
Описание: Всемирный любимчик со дна океана Губка Боб Квадратные Штаны должен спасти свой глубоководный мир, но для этого ему и его друзьям придется выбраться на сушу и оказаться в нашем.

Видео кодек: MPEG-4 AVC
Качество: BDRip 720p
Параметры Видео: 1280x720, 23.976 fps; ~1 997 kbps avg
Параметры Звука: 44.1 KHz, AAC, ~149.00 kbps avg, 2ch
Формат: mp4
Автор рипа:
Релиз-группа:



General
Complete name : E:Gubka.bob.2015.D.BDRip.720p_KinoGadget.mp4
Format : MPEG-4
Format profile : Base Media
Codec ID : isom
File size : 1.39 GiB
Duration : 1h 32mn
Overall bit rate mode : Variable
Overall bit rate : 2 154 Kbps
Movie name : Губка Боб в 3D
Performer : Пол Тиббит
Genre : Adventure, Animation, Comedy
ContentType : Short Film
Recorded date : 2015
Encoded date : UTC 2015-05-24 04:14:22
Tagged date : UTC 2015-05-24 04:38:22
Cover : Yes
ContentRating : mpaa|PG|200|
LongDeion : Всемирный любимчик со дна океана Губка Боб Квадратные Штаны должен спасти свой глубоководный мир, но для этого ему и его друзьям придется выбраться на сушу и оказаться в нашем.
HDVideo : Yes
Video
ID : 1
Format : AVC
Format/Info : Advanced Video Codec
Format profile : High@L4.1
Format settings, CABAC : Yes
Format settings, ReFrames : 9 frames
Codec ID : avc1
Codec ID/Info : Advanced Video Coding
Duration : 1h 32mn
Bit rate : 1 997 Kbps
Maximum bit rate : 18.1 Mbps
Width : 1 280 pixels
Height : 720 pixels
Display aspect ratio : 16:9
Frame rate mode : Constant
Frame rate : 23.976 fps
Color space : YUV
Chroma subsampling : 4:2:0
Bit depth : 8 bits
Scan type : Progressive
Bits/(Pixel*Frame) : 0.090
Stream size : 1.29 GiB (93%)
Writing library : x264 core 146 r2538 121396c
Encoding settings : cabac=1 / ref=9 / deblock=1:-1:-1 / analyse=0x3:0x133 / me=umh / subme=9 / psy=1 / psy_rd=1.00:0.20 / mixed_ref=1 / me_range=32 / chroma_me=1 / trellis=2 / 8x8dct=1 / cqm=0 / deadzone=21,11 / fast_pskip=1 / chroma_qp_offset=-3 / threads=3 / lookahead_threads=1 / sliced_threads=0 / nr=0 / decimate=1 / interlaced=0 / bluray_compat=0 / constrained_intra=0 / bframes=16 / b_pyramid=2 / b_adapt=2 / b_bias=0 / direct=3 / weightb=1 / open_gop=0 / weightp=2 / keyint=240 / keyint_min=23 / scenecut=40 / intra_refresh=0 / rc_lookahead=60 / rc=crf / mbtree=1 / crf=21.0 / qcomp=0.60 / qpmin=0 / qpmax=69 / qpstep=4 / ip_ratio=1.40 / aq=1:1.00
Encoded date : UTC 2015-05-24 03:00:07
Tagged date : UTC 2015-05-24 04:14:55
Audio
ID : 2
Format : AAC
Format/Info : Advanced Audio Codec
Format profile : LC
Codec ID : 40
Duration : 1h 32mn
Bit rate mode : Variable
Bit rate : 149 Kbps
Maximum bit rate : 214 Kbps
Channel count : 2 channels
Channel positions : Front: L R
Sampling rate : 44.1 KHz
Compression mode : Lossy
Stream size : 99.0 MiB (7%)
Language : Russian
Encoded date : UTC 2015-05-24 04:14:45
Tagged date : UTC 2015-05-24 04:14:55





   Похожие торренты   Торрент   Размер 
В этой теме нет новых непрочитанных сообщений. Губка Боб в 3D / The SpongeBob Movie: Sponge Out of Water (2015) BDRip 720p от HELLYWOOD | Лицензия

387 | 37

4.37 ГБ

В этой теме нет новых непрочитанных сообщений. Губка Боб в 3D / The SpongeBob Movie: Sponge Out of Water (2015) WEB-DL 720p | iTunes

2351 | 258

2.87 ГБ

В этой теме нет новых непрочитанных сообщений. Губка Боб в 3D / The SpongeBob Movie: Sponge Out of Water (2015) BDRip-AVC от NNNB

246 | 49

2.05 ГБ

В этой теме нет новых непрочитанных сообщений. Губка Боб в 3D / The SpongeBob Movie: Sponge Out of Water (2015) BDRip-AVC от R.G. HD-Films | 60 fps

361 | 29

3.84 ГБ

В этой теме нет новых непрочитанных сообщений. Губка Боб в 3D / The SpongeBob Movie: Sponge Out of Water (2015) WEBRip 720p | Звук с ТS

417 | 47

1.77 ГБ

В этой теме нет новых непрочитанных сообщений. Губка Боб в 3D / The SpongeBob Movie: Sponge Out of Water (2015) ВDRip 720p | Лицензия

160 | 13

4.45 ГБ

В этой теме нет новых непрочитанных сообщений. Губка Боб в 3D / The SpongeBob Movie: Sponge Out of Water (2015) BDRip от HQCLUB | Лицензия

2687 | 95

1.45 ГБ




Вы не можете начинать темы
Вы не можете отвечать на сообщения
Вы не можете редактировать свои сообщения
Вы не можете удалять свои сообщения
Вы не можете добавлять вложения

Перейти:  
Для Мосгорсуда, Роскомнадзора и рекламодателей: mosgorsud-torrent[собачка]yandex.ru
 Вход
ppkBB3cker v.2 © 2008-2014 @ PPK
[ Time : 0.030s | 15 Queries | GZIP : Off ]

cron