img image001 image001 image001 image001 image001 image001 image001 image001 image001 image001 image001 image001 image001 image001 image001

Planets Sun Sun Sun
Статистика раздачи
Автор: Nickolas3434 | Размер: 4.85 ГБ | Добавлен: 26 май 2015
Раздают: 1350    Качают: 77
Скачать торрент
Скачать торрент
Описание торрента

СообщениеДобавлено: 26 май 2015 


Производство: США, Китай, Франция / Mili Pictures
Жанр: Мультфильм, Фэнтези, Приключения, Семейный
Режиссер: Юэфэн Сонг
Персонажи: Цзяо Сюй, Гуаньлин Джи, Йинг Хуан, Давей Шен, Сянлонг Менг, Йе Сунь, Тиан Джин, Хон Шан, Цзытун Ся, Блайт Оффарт
Описание:
Кто бы мог подумать, что всегда неуклюжий, но несомненно талантливый парень станет великим героем, который спасет свою красивейшую планету от пробудившегося зла?
Много лет, пока легендарный Черный дракон спал, земля Алтера хранила хрупкий мир между расами людей, эльфов и неведомых нашему миру животных. Когда же он пробудился, охваченные ужасом жители были вынуждены бежать сквозь остров в попытке найти спасение…
Наш герой Ламберт в компании своих пушистых компаньонов отправляется в путь полный веселых развлечений и приключений, встречая настоящих друзей и любовь в лице прекрасной эльфийской девочки. Объединившись, они находят тайную дорогу к пещере дракона, а юный воин выполняет возложенную на него важнейшую миссию: он входит в доверие к Черному Дракону, чтобы с честью и юмором выйти победителем.
Релиз от: bog3417
Продолжительность: 01:30:01
Качество видео: BDRip 720p
Перевод: Дублированный (Лицензия BD RUS)
Язык субтитров: Отсутствуют
Видео: AVC/H.264, ~5555 kbps, 1280x688
Aудио #1: Русский: AC3/ 5.1 / 48 kHz / 640 kbps / 16-bit
Aудио #2: Русский: DTS / 5.1 / 48 kHz / 1510 kbps / 24-bit
Семпл
Общее
Уникальный идентификатор : 216725199092300536631329655220998013243 (0xA30BC14BD7AE090AA5498D0ECC6C813B)
Полное имя : D:РелизыGnezdo.drakona.2014.BDRip.720p.by.bog3417.mkv
Формат : Matroska
Версия формата : Version 2
Размер файла : 4,85 Гбайт
Продолжительность : 1 ч. 30 м.
Общий поток : 7706 Кбит/сек
Название фильма : Gnezdo.drakona.by.bog3417
Дата кодирования : UTC 2015-05-25 03:20:50
Программа кодирования : mkvmerge v6.2.0 ('Promised Land') built on Apr 28 2013 12:22:01
Библиотека кодирования : libebml v1.3.0 + libmatroska v1.4.0
Видео
Идентификатор : 1
Формат : AVC
Формат/Информация : Advanced Video Codec
Профиль формата : High@L4.1
Параметр CABAC формата : Да
Параметр ReFrames формата : 9 кадров
Идентификатор кодека : V_MPEG4/ISO/AVC
Продолжительность : 1 ч. 30 м.
Битрейт : 5555 Кбит/сек
Ширина : 1280 пикселей
Высота : 688 пикселей
Соотношение сторон : 1,85:1
Режим частоты кадров : Постоянный
Частота кадров : 24,000 кадра/сек
Цветовое пространство : YUV
Субдискретизация насыщенности : 4:2:0
Битовая глубина : 8 бит
Тип развёртки : Прогрессивная
Бит/(Пиксели*Кадры) : 0.263
Размер потока : 3,40 Гбайт (70%)
Заголовок : Gnezdo.drakona.by.bog3417
Библиотека кодирования : x264 core 146 r2538 121396c
Настройки программы : cabac=1 / ref=9 / deblock=1:-3:-3 / analyse=0x3:0x33 / me=umh / subme=10 / psy=1 / psy_rd=1.00:0.10 / mixed_ref=1 / me_range=32 / chroma_me=1 / trellis=2 / 8x8dct=1 / cqm=0 / deadzone=21,11 / fast_pskip=0 / chroma_qp_offset=-3 / threads=12 / lookahead_threads=2 / sliced_threads=0 / nr=0 / decimate=0 / interlaced=0 / bluray_compat=0 / constrained_intra=0 / bframes=9 / b_pyramid=2 / b_adapt=2 / b_bias=0 / direct=3 / weightb=1 / open_gop=0 / weightp=2 / keyint=240 / keyint_min=24 / scenecut=40 / intra_refresh=0 / rc=2pass / mbtree=0 / bitrate=5555 / ratetol=1.0 / qcomp=0.60 / qpmin=0 / qpmax=69 / qpstep=4 / cplxblur=20.0 / qblur=0.5 / ip_ratio=1.40 / pb_ratio=1.30 / aq=3:0.90
Язык : English
Default : Да
Forced : Нет
Аудио #1
Идентификатор : 2
Формат : AC-3
Формат/Информация : Audio Coding 3
Расширение режима : CM (complete main)
Параметр Endianness формата : Big
Идентификатор кодека : A_AC3
Продолжительность : 1 ч. 30 м.
Вид битрейта : Постоянный
Битрейт : 640 Кбит/сек
Каналы : 6 каналов
Расположение каналов : Front: L C R, Side: L R, LFE
Частота : 48,0 КГц
Битовая глубина : 16 бит
Метод сжатия : С потерями
Размер потока : 412 Мбайт (8%)
Заголовок : BD RUS AC3@640
Язык : Russian
Default : Да
Forced : Нет
Аудио #2
Идентификатор : 3
Формат : DTS
Формат/Информация : Digital Theater Systems
Режим : 16
Параметр Endianness формата : Big
Идентификатор кодека : A_DTS
Продолжительность : 1 ч. 30 м.
Вид битрейта : Постоянный
Битрейт : 1509 Кбит/сек
Каналы : 6 каналов
Расположение каналов : Front: L C R, Side: L R, LFE
Частота : 48,0 КГц
Битовая глубина : 24 бит
Метод сжатия : С потерями
Размер потока : 972 Мбайт (20%)
Заголовок : BD RUS DTS@1510
Язык : Russian
Default : Нет
Forced : Нет
Меню
00:00:00.000 : en:00:00:00.000
00:00:04.000 : en:00:00:04.000
00:09:47.875 : en:00:09:47.875
00:22:21.458 : en:00:22:21.458
00:34:00.791 : en:00:34:00.791
00:45:00.666 : en:00:45:00.666
00:53:09.125 : en:00:53:09.125
01:03:32.208 : en:01:03:32.208
01:15:11.541 : en:01:15:11.541






   Похожие торренты   Торрент   Размер 
В этой теме нет новых непрочитанных сообщений. Гнездо дракона / Dragon Nest: Warriors' Dawn (2014) BDRip от Twi7ter | D | Лицензия

1985 | 161

1.46 ГБ

В этой теме нет новых непрочитанных сообщений. Гнездо дракона / Dragon Nest: Warriors' Dawn (2014) BDRip-AVC от HELLYWOOD | Лицензия

446 | 29

1.46 ГБ

В этой теме нет новых непрочитанных сообщений. Гнездо дракона / Dragon Nest: Warriors' Dawn (2014) BDRip 1080p | Лицензия

545 | 55

7.01 ГБ

В этой теме нет новых непрочитанных сообщений. Гнездо Дракона / Dragon Nest: Warriors' Dawn (2014) BDRip 720p от KinoGadget | iPad

90 | 18

1.72 ГБ

В этой теме нет новых непрочитанных сообщений. Гнездо дракона / Dragon Nest: Warriors' Dawn (2014) WEB-DL 720p | iTunes

730 | 20

2.8 ГБ

В этой теме нет новых непрочитанных сообщений. Гнездо Дракона / Dragon Nest: Warriors' Dawn (2014) HDRip-720p | SUB

804 | 66

1.66 ГБ

В этой теме нет новых непрочитанных сообщений. Гнездо Дракона / Dragon Nest: Warriors' Dawn (2014) HDRip-720p | Sub

2368 | 94

1.66 ГБ




Вы не можете начинать темы
Вы не можете отвечать на сообщения
Вы не можете редактировать свои сообщения
Вы не можете удалять свои сообщения
Вы не можете добавлять вложения

Перейти:  
Для Мосгорсуда, Роскомнадзора и рекламодателей: mosgorsud-torrent[собачка]yandex.ru
 Вход
ppkBB3cker v.2 © 2008-2014 @ PPK
[ Time : 0.553s | 15 Queries | GZIP : Off ]

Торрент трекер RUTOR.IN, Не можете зайти на rutor.org? Какой новый адрес рутор? Какое зеркало рутор? Не работает rutor.org и зеркала? Тогда наш торрент специально для вас. Rutor.in неофициальное зеркало rutor. В случае если у Вас заблокирован rutor или вдруг Вы не можете на него зайти, то Вы без труда сможете скачать бесплатно и без рекламы последние новинки кино, игр, сериалов и прочего у нас, на Rutor.in. Не нужно использовать прокси, чтобы зайти на рутор, достаточно воспользоваться нашим ресурсом. Все новые фильмы, игры, сериалы, книги и музыка за 2013 и 2014 годы через торрент бесплатно. Скачивайте фильмы в хорошем качестве, игры для пк, xbox, playstation без регистрации. У нас вы найдете новые Зарубежные сериалы и Русские сериалы 2013, 2014, 2015 годов. Оставайтесь с нами, качайте любимые фильмы, игры, сериалы, книги и музыку.