img image001 image001 image001 image001 image001 image001 image001 image001 image001 image001 image001 image001 image001 image001 image001

Planets Sun Sun Sun
Статистика раздачи
Автор: Nickolas3434 | Размер: 4.37 ГБ | Добавлен: 30 май 2015
Раздают: 328    Качают: 18
Скачать торрент
Скачать торрент
Описание торрента

СообщениеДобавлено: 30 май 2015 

История игрушек 2 / Toy Story 2 (1999) BDRip [720p] от HQ-ViDEO
История игрушек: Большой побег / Toy Story 3 (2010) BDRip [720p] от HQ-ViDEO
История игрушек / Toy Story (1995) BDRip 720p
Релиз от HQ-ViDEO

Информация о фильме
Название: История игрушек
Оригинальное название: Toy Story
Год выхода: 1995
Жанр: мультфильм, фэнтези, комедия, приключения, семейный
Режиссер: Джон Лассетер /John Lasseter/
В ролях: Том Хэнкс /Tom Hanks/, Тим Аллен /Tim Allen/, Дон Риклз /Don Rickles/, Джим Варни /Jim Varney/, Уоллес Шоун /Wallace Shawn/, Джон Ратценбергер /John Ratzenberger/, Энни Поттс /Annie Potts/, Джон Моррис /John Morris/, Эрик Фон Деттен /Erik von Detten/, Лори Меткаф /Laurie Metcalf/...
О фильме:
Каждый ребенок верит, что когда он оставляет свои игрушки одни, они начинают заниматься своими делами. Этот мультипликационный фильм позволяет убедиться им в своей правоте.
Основная идея фильма — каждая игрушка боится надоесть, стать забытой, замененной другой, так как весь смысл их существования — доставлять счастье своим хозяевам.

Страна: США
Продолжительность: 01:21:25
Перевод: Русский дублированный (Лицензия) + Оригинальная, английская дорожка + Украинский дублированный (Лицензия) (Отдельно)
Файл
Кодек: MKV, H.264
Качество: BDRip 720p (Source: Blu-ray Disc)
Видео: 6628 kbps; 0.300 bit/pixel; 1280 x 720; 16:9; 23.976 fps
Звук №1: AC3 Dolby Digital; 448.00 kbps, 6 Ch - RUS DUB
Звук №2: AC3 Dolby Digital; 448.00 kbps, 6 Ch - ENG
Звук №3: AC3 Dolby Digital; 448.00 kbps, 6 Ch - UKR DUB (отдельно / скачать с Яндекс Диск)
Субтитры: Русские, Английские.
Размер: 4.37 GB
SAMPLE / скачать с Яндекс Диск
General
Complete name : Istoriya.Igrushek.1995.DUAL.BDRip.720p.h264.AC3.-HQ-ViDEO.mkv
Format : Matroska
File size : 4.37 GiB
Duration : 1h 21mn
Overall bit rate : 7 677 Kbps
Movie name : Toy Story (1995)
Encoded date : UTC 2010-12-01 07:33:28
Writing application : mkvmerge v3.3.0 ('Language') built on Mar 24 2010 14:59:24
Writing library : libebml v0.8.0 + libmatroska v0.9.0
Video
ID : 1
Format : AVC
Format/Info : Advanced Video Codec
Format profile : High@L4.1
Format settings, CABAC : Yes
Format settings, ReFrames : 6 frames
Muxing mode : Container profile=Unknown@4.1
Codec ID : V_MPEG4/ISO/AVC
Duration : 1h 21mn
Bit rate : 6 628 Kbps
Width : 1 280 pixels
Height : 720 pixels
Display aspect ratio : 16:9
Frame rate : 23.976 fps
Resolution : 8 bits
Colorimetry : 4:2:0
Scan type : Progressive
Bits/(Pixel*Frame) : 0.300
Stream size : 3.77 GiB (86%)
Title : Encoded by GYN
Audio #1
ID : 2
Format : AC-3
Format/Info : Audio Coding 3
Codec ID : A_AC3
Duration : 1h 21mn
Bit rate mode : Constant
Bit rate : 448 Kbps
Channel(s) : 6 channels
Channel positions : Front: L C R, Surround: L R, LFE
Sampling rate : 48.0 KHz
Stream size : 261 MiB (6%)
Title : DUB
Language : Russian
Audio #2
ID : 3
Format : AC-3
Format/Info : Audio Coding 3
Codec ID : A_AC3
Duration : 1h 21mn
Bit rate mode : Constant
Bit rate : 448 Kbps
Channel(s) : 6 channels
Channel positions : Front: L C R, Surround: L R, LFE
Sampling rate : 48.0 KHz
Stream size : 261 MiB (6%)
Title : Original
Language : English
Text #1
ID : 4
Format : UTF-8
Codec ID : S_TEXT/UTF8
Codec ID/Info : UTF-8 Plain Text
Language : Russian
Text #2
ID : 5
Format : UTF-8
Codec ID : S_TEXT/UTF8
Codec ID/Info : UTF-8 Plain Text
Language : English





Релиз от: HQ-ViDEO
Автор рипа: GYN



   Похожие торренты   Торрент   Размер 
В этой теме нет новых непрочитанных сообщений. История игрушек / Toy Story (1995) BDRip от HQ-ViDEO

829 | 136

1.67 ГБ

В этой теме нет новых непрочитанных сообщений. История игрушек / Toy Story (1995) BDrip 1080p | 3D-Video

3 | 5

8.2 ГБ

В этой теме нет новых непрочитанных сообщений. История игрушек / Toy Story (1995) BDRip 720p от Leonardo and Scarabey | Лицензия

218 | 39

8.14 ГБ

В этой теме нет новых непрочитанных сообщений. История игрушек / Toy Story (1995) BDRip 720p от Leonardo and Scarabey | Лицензия

76 | 5

2.57 ГБ

В этой теме нет новых непрочитанных сообщений. История игрушек 2 / Toy Story 2 (1999) BDRip [720p] от HQ-ViDEO

34 | 12

4.66 ГБ

В этой теме нет новых непрочитанных сообщений. История игрушек: Трилогия / Toy Story: Trilogy (1995-2010) BDRip 720p от HELLYWOOD | Лицензия

91 | 24

9.7 ГБ

В этой теме нет новых непрочитанных сообщений. История игрушек: Большой побег / Toy Story 3 (2010) BDRip [720p] от HQ-ViDEO

21 | 12

4.65 ГБ




Вы не можете начинать темы
Вы не можете отвечать на сообщения
Вы не можете редактировать свои сообщения
Вы не можете удалять свои сообщения
Вы не можете добавлять вложения

Перейти:  
Для Мосгорсуда, Роскомнадзора и рекламодателей: mosgorsud-torrent[собачка]yandex.ru
 Вход
ppkBB3cker v.2 © 2008-2014 @ PPK
[ Time : 0.060s | 15 Queries | GZIP : Off ]

Торрент трекер RUTOR.IN, Не можете зайти на rutor.org? Какой новый адрес рутор? Какое зеркало рутор? Не работает rutor.org и зеркала? Тогда наш торрент специально для вас. Rutor.in неофициальное зеркало rutor. В случае если у Вас заблокирован rutor или вдруг Вы не можете на него зайти, то Вы без труда сможете скачать бесплатно и без рекламы последние новинки кино, игр, сериалов и прочего у нас, на Rutor.in. Не нужно использовать прокси, чтобы зайти на рутор, достаточно воспользоваться нашим ресурсом. Все новые фильмы, игры, сериалы, книги и музыка за 2013 и 2014 годы через торрент бесплатно. Скачивайте фильмы в хорошем качестве, игры для пк, xbox, playstation без регистрации. У нас вы найдете новые Зарубежные сериалы и Русские сериалы 2013, 2014, 2015 годов. Оставайтесь с нами, качайте любимые фильмы, игры, сериалы, книги и музыку.