img image001 image001 image001 image001 image001 image001 image001 image001 image001 image001 image001 image001 image001 image001 image001

Planets Sun Sun Sun
Статистика раздачи
Автор: Nickolas3434 | Размер: 7.76 ГБ | Добавлен: 06 июн 2015
Раздают: 545    Качают: 37
Скачать торрент
Скачать торрент
Описание торрента

СообщениеДобавлено: 06 июн 2015 


Информация о фильме
Название: Губка Боб в 3D
Оригинальное название: The SpongeBob Movie: Sponge Out of Water
Год выхода: 2015
Жанр: мультфильм, комедия, приключения, семейный
Режиссер: Пол Тиббит
В ролях: Антонио Бандерас, Том Кенни, Эрик Бауза, Тим Конуэй, Эдди Дизен, Роб Полсен, Кевин Майкл Ричардсон, Эйприл Стюарт, Кри Саммер, Билли Уэст
О фильме: Всемирный любимчик со дна океана Губка Боб Квадратные Штаны должен спасти свой глубоководный мир, но для этого ему и его друзьям придется выбраться на сушу и оказаться в нашем.

Выпущено: Paramount Pictures
Продолжительность: 01:32:34
Перевод: Дублированный (лицензия) + украинский дублированный (лицензия)
Файл
Кодек: x264
Качество: BDRip (источник: Blu-ray Disc)
Видео: 1920x1080 (16:9), 23.976 fps, 10075 kbps
Аудио #1: AC-3, 6 ch, 640 kbps (Rus)
Аудио #2: AC-3, 6 ch, 640 kbps (Ukr)
Аудио #3: AC-3, 6 ch, 640 kbps (Eng)
Субтитры: Русские (форс,полные), Украинские (форс,полные), Английские
Скачать: сэмпл
Скриншоты

General
Unique ID : 254792038462660016373036766747344397245 (0xBFAF2961AD19B339A18C3B6D85B663BD)
Complete name : D:The.SpongeBob.Movie.Sponge.Out.of.Water.2015.BDRip.1080p.Rus.Ukr.Eng.mkv
Format : Matroska
Format version : Version 2
File size : 7.76 GiB
Duration : 1h 32mn
Overall bit rate : 12.0 Mbps
Movie name : Губка Боб в 3D / The SpongeBob Movie: Sponge Out of Water (2015)
Encoded date : UTC 2015-06-04 22:04:18
Writing application : mkvmerge v5.8.0 ('No Sleep / Pillow') built on Sep 2 2012 15:37:04
Writing library : libebml v1.2.3 + libmatroska v1.3.0
Attachements : cover.png / logfile.log
Video
ID : 1
Format : AVC
Format/Info : Advanced Video Codec
Format profile : High@L4.1
Format settings, CABAC : Yes
Format settings, ReFrames : 4 frames
Codec ID : V_MPEG4/ISO/AVC
Duration : 1h 32mn
Bit rate : 10.1 Mbps
Width : 1 920 pixels
Height : 1 080 pixels
Display aspect ratio : 16:9
Frame rate mode : Constant
Frame rate : 23.976 fps
Color space : YUV
Chroma subsampling : 4:2:0
Bit depth : 8 bits
Scan type : Progressive
Bits/(Pixel*Frame) : 0.203
Stream size : 6.36 GiB (82%)
Title : Губка Боб в 3D / The SpongeBob Movie: Sponge Out of Water (2015)
Writing library : x264 core 146 r0+2586 e393126 t_mod_Custom [8-bit@all X86_64]
Encoding settings : cabac=1 / ref=4 / deblock=1:-3:-3 / analyse=0x3:0x133 / me=umh / subme=10 / psy=1 / fade_compensate=0.00 / psy_rd=1.05:0.00 / mixed_ref=1 / me_range=32 / chroma_me=1 / trellis=2 / 8x8dct=1 / cqm=0 / deadzone=21,11 / fast_pskip=0 / chroma_qp_offset=-2 / threads=12 / lookahead_threads=3 / sliced_threads=0 / nr=0 / decimate=1 / interlaced=0 / bluray_compat=0 / constrained_intra=0 / fgo=0 / bframes=10 / b_pyramid=2 / b_adapt=2 / b_bias=0 / direct=3 / weightb=1 / open_gop=0 / weightp=2 / keyint=240 / keyint_min=23 / scenecut=40 / intra_refresh=0 / rc=2pass / mbtree=0 / bitrate=10075 / ratetol=1.0 / qcomp=0.70 / qpmin=0:0:0 / qpmax=69:69:69 / qpstep=4 / cplxblur=20.0 / qblur=0.5 / ip_ratio=1.40 / pb_ratio=1.30 / aq=1:0.70 / aq-sensitivity=10.00 / aq-factor=1.00:1.00:1.00 / aq2=0 / aq3=0
Language : English
Default : Yes
Forced : No
Audio #1
ID : 2
Format : AC-3
Format/Info : Audio Coding 3
Mode extension : CM (complete main)
Format settings, Endianness : Big
Codec ID : A_AC3
Duration : 1h 32mn
Bit rate mode : Constant
Bit rate : 640 Kbps
Channel(s) : 6 channels
Channel positions : Front: L C R, Side: L R, LFE
Sampling rate : 48.0 KHz
Bit depth : 16 bits
Compression mode : Lossy
Stream size : 424 MiB (5%)
Title : Дубляж, Blu-ray CEE
Language : Russian
Default : Yes
Forced : No
Audio #2
ID : 3
Format : AC-3
Format/Info : Audio Coding 3
Mode extension : CM (complete main)
Format settings, Endianness : Big
Codec ID : A_AC3
Duration : 1h 32mn
Bit rate mode : Constant
Bit rate : 640 Kbps
Channel(s) : 6 channels
Channel positions : Front: L C R, Side: L R, LFE
Sampling rate : 48.0 KHz
Bit depth : 16 bits
Compression mode : Lossy
Stream size : 424 MiB (5%)
Title : Дубляж, Blu-ray CEE
Language : Ukrainian
Default : No
Forced : No
Audio #3
ID : 4
Format : AC-3
Format/Info : Audio Coding 3
Mode extension : CM (complete main)
Format settings, Endianness : Big
Codec ID : A_AC3
Duration : 1h 32mn
Bit rate mode : Constant
Bit rate : 640 Kbps
Channel(s) : 6 channels
Channel positions : Front: L C R, Side: L R, LFE
Sampling rate : 48.0 KHz
Bit depth : 16 bits
Compression mode : Lossy
Stream size : 424 MiB (5%)
Title : English
Language : English
Default : No
Forced : No
Text #1
ID : 5
Format : UTF-8
Codec ID : S_TEXT/UTF8
Codec ID/Info : UTF-8 Plain Text
Title : Russian (Forced)
Language : Russian
Default : Yes
Forced : No
Text #2
ID : 6
Format : UTF-8
Codec ID : S_TEXT/UTF8
Codec ID/Info : UTF-8 Plain Text
Title : Russian
Language : Russian
Default : No
Forced : No
Text #3
ID : 7
Format : UTF-8
Codec ID : S_TEXT/UTF8
Codec ID/Info : UTF-8 Plain Text
Title : Ukrainian (Forced)
Language : Ukrainian
Default : No
Forced : No
Text #4
ID : 8
Format : UTF-8
Codec ID : S_TEXT/UTF8
Codec ID/Info : UTF-8 Plain Text
Title : Ukrainian
Language : Ukrainian
Default : No
Forced : No
Text #5
ID : 9
Format : UTF-8
Codec ID : S_TEXT/UTF8
Codec ID/Info : UTF-8 Plain Text
Title : English
Language : English
Default : No
Forced : No
Text #6
ID : 10
Format : UTF-8
Codec ID : S_TEXT/UTF8
Codec ID/Info : UTF-8 Plain Text
Title : English (SDH)
Language : English
Default : No
Forced : No
Text #7
ID : 11
Format : UTF-8
Codec ID : S_TEXT/UTF8
Codec ID/Info : UTF-8 Plain Text
Title : English (SDH Colored)
Language : English
Default : No
Forced : No
Menu
00:00:00.000 : :Chapter 01
00:03:40.386 : :Chapter 02
00:06:22.173 : :Chapter 03
00:12:29.999 : :Chapter 04
00:18:21.600 : :Chapter 05
00:22:52.079 : :Chapter 06
00:30:14.687 : :Chapter 07
00:35:37.885 : :Chapter 08
00:39:50.971 : :Chapter 09
00:43:13.424 : :Chapter 10
00:50:54.509 : :Chapter 11
00:55:16.396 : :Chapter 12
01:00:03.099 : :Chapter 13
01:04:19.355 : :Chapter 14
01:10:16.587 : :Chapter 15
01:16:20.367 : :Chapter 16
01:20:29.491 : :Chapter 17
01:23:30.839 : :Chapter 18
x264 [info]: frame I:1266 Avg QP:13.26 size:378627
x264 [info]: frame P:47843 Avg QP:15.48 size: 87665
x264 [info]: frame B:84065 Avg QP:17.19 size: 27568
x264 [info]: consecutive B-frames: 8.1% 14.1% 44.4% 15.2% 8.1% 6.9% 1.1% 0.7% 0.7% 0.3% 0.6%



   Похожие торренты   Торрент   Размер 
В этой теме нет новых непрочитанных сообщений. Губка Боб в 3D / The SpongeBob Movie: Sponge Out of Water (2015) Вlu-Ray 1080p от HDClub | Лицензия

8 | 3

41.74 ГБ

В этой теме нет новых непрочитанных сообщений. Губка Боб в 3D / The SpongeBob Movie: Sponge Out of Water (2015) ВDRip 1080p | Лицензия

343 | 11

9.14 ГБ

В этой теме нет новых непрочитанных сообщений. Губка Боб в 3D / The SpongeBob Movie: Sponge Out of Water (2015) ВDRemux 1080p | Лицензия

21 | 8

26.53 ГБ

В этой теме нет новых непрочитанных сообщений. Губка Боб в 3D / The SpongeBob Movie: Sponge Out of Water (2015) ВDRip 1080p | 3D-Video | HOU | Лицензия

192 | 10

8.89 ГБ

В этой теме нет новых непрочитанных сообщений. Губка Боб в 2D, 3D / The SpongeBob Movie: Sponge Out of Water 2D, 3D (2015) ВDRemux 1080p | 3D-Video | Лицензия

9 | 7

37.34 ГБ

В этой теме нет новых непрочитанных сообщений. Губка Боб в 3D / The SpongeBob Movie: Sponge Out of Water (2015) ВDRip 1080p | 3D-Video | HSBS | Лицензия

105 | 9

7.08 ГБ

В этой теме нет новых непрочитанных сообщений. Губка Боб в 3D / The SpongeBob Movie: Sponge Out of Water (2015) BDRip от HQCLUB | Лицензия

3073 | 113

1.45 ГБ




Вы не можете начинать темы
Вы не можете отвечать на сообщения
Вы не можете редактировать свои сообщения
Вы не можете удалять свои сообщения
Вы не можете добавлять вложения

Перейти:  
Для Мосгорсуда, Роскомнадзора и рекламодателей: mosgorsud-torrent[собачка]yandex.ru
 Вход
ppkBB3cker v.2 © 2008-2014 @ PPK
[ Time : 0.044s | 16 Queries | GZIP : Off ]

Торрент трекер RUTOR.IN, Не можете зайти на rutor.org? Какой новый адрес рутор? Какое зеркало рутор? Не работает rutor.org и зеркала? Тогда наш торрент специально для вас. Rutor.in неофициальное зеркало rutor. В случае если у Вас заблокирован rutor или вдруг Вы не можете на него зайти, то Вы без труда сможете скачать бесплатно и без рекламы последние новинки кино, игр, сериалов и прочего у нас, на Rutor.in. Не нужно использовать прокси, чтобы зайти на рутор, достаточно воспользоваться нашим ресурсом. Все новые фильмы, игры, сериалы, книги и музыка за 2013 и 2014 годы через торрент бесплатно. Скачивайте фильмы в хорошем качестве, игры для пк, xbox, playstation без регистрации. У нас вы найдете новые Зарубежные сериалы и Русские сериалы 2013, 2014, 2015 годов. Оставайтесь с нами, качайте любимые фильмы, игры, сериалы, книги и музыку.