img image001 image001 image001 image001 image001 image001 image001 image001 image001 image001 image001 image001 image001 image001 image001

Planets Sun Sun Sun
Статистика раздачи
Автор: Nickolas3434 | Размер: 19.21 МБ | Добавлен: 07 июн 2015
Раздают: 679    Качают: 33
Скачать торрент
Скачать торрент
Описание торрента

СообщениеДобавлено: 07 июн 2015 


Год выпуска: 2015
Производство: США
Жанр: мультфильм, фэнтези, комедия, семейный
Перевод: Дублированный
Режиссер: Питер Сон
Продюсеры: Денис Рим, Джон Лассетер
Актеры: Джуди Грир, Нил Патрик Харрис, Джон Литгоу, Билл Хейдер, Фрэнсис МакДорманд, Лукас Нефф, Кэрри Пафф
Описание фильма:
По сюжету динозавры не вымерли, а эволюционировали в разумных существ и живут и здравствуют на Земле. А вот люди остались на довольно примитивной стадии развития. Фильм расскажет историю дружбы динозавра и маленького мальчика.
Дата мировой премьеры: 25 ноября 2015
Дата российской премьеры: 26 ноября 2015

Продолжительность: 00:01:09
Качество видео: WEBRip
Видеокодек: MPEG-4 AVC/H.264
Битрейт видео: 2201 Кбит/сек
Размер кадра: 1920x800
Аудиокодек: AC3 2.0
Битрейт аудио: 126 Кбит/сек
Общее
Полное имя : Хороший динозавр Русский Тизер-Трейлер (2015).mp4
Формат : MPEG-4
Профиль формата : Base Media
Идентификатор кодека : isom
Размер файла : 19,2 Мбайт
Продолжительность : 1 м. 9 с.
Общий поток : 2330 Кбит/сек
Программа кодирования : Lavf56.19.100
Видео
Идентификатор : 1
Формат : AVC
Формат/Информация : Advanced Video Codec
Профиль формата : High@L4
Параметр CABAC формата : Да
Параметр ReFrames формата : 2 кадра
Идентификатор кодека : avc1
Идентификатор кодека/Информация : Advanced Video Coding
Продолжительность : 1 м. 9 с.
Битрейт : 2201 Кбит/сек
Ширина : 1920 пикселей
Высота : 816 пикселей
Соотношение сторон : 2,35:1
Режим частоты кадров : Переменный
Частота кадров : 23,976 кадра/сек
Минимальная частота кадров : 23,974 кадра/сек
Максимальная частота кадров : 23,981 кадра/сек
Цветовое пространство : YUV
Субдискретизация насыщенности : 4:2:0
Битовая глубина : 8 бит
Тип развёртки : Прогрессивная
Бит/(Пиксели*Кадры) : 0.059
Размер потока : 18,1 Мбайт (94%)
Аудио
Идентификатор : 2
Формат : AAC
Формат/Информация : Advanced Audio Codec
Профиль формата : LC
Идентификатор кодека : 40
Продолжительность : 1 м. 9 с.
Вид битрейта : Постоянный
Битрейт : 126 Кбит/сек
Каналы : 2 канала
Расположение каналов : Front: L R
Частота : 44,1 КГц
Метод сжатия : С потерями
Размер потока : 1,04 Мбайт (5%)

Скриншоты








   Похожие торренты   Торрент   Размер 
В этой теме нет новых непрочитанных сообщений. Хороший динозавр / The Good Dinosaur (2015) WEBRip | Звук с CAMRip

14209 | 310

1.38 ГБ

В этой теме нет новых непрочитанных сообщений. Хороший динозавр / The Good Dinosaur (2015) Blu-ray 1080p | iTunes

49 | 22

34.13 ГБ

В этой теме нет новых непрочитанных сообщений. Хороший динозавр / The Good Dinosaur (2015) BDRemux 1080p | Line

990 | 69

18.05 ГБ

В этой теме нет новых непрочитанных сообщений. Хороший динозавр / The Good Dinosaur (2015) BDRip 1080p | Line

7813 | 179

4.51 ГБ

В этой теме нет новых непрочитанных сообщений. Хороший динозавр / The Good Dinosaur (2015) BDRip 1080p | iTunes

668 | 157

8.18 ГБ

В этой теме нет новых непрочитанных сообщений. Хороший динозавр / The Good Dinosaur (2015) BDRip 1080p | Лицензия

764 | 41

10.1 ГБ

В этой теме нет новых непрочитанных сообщений. Хороший динозавр / The Good Dinosaur (2015) BDRip 1080p от ExKinoRay | Лицензия

539 | 45

7.37 ГБ




Вы не можете начинать темы
Вы не можете отвечать на сообщения
Вы не можете редактировать свои сообщения
Вы не можете удалять свои сообщения
Вы не можете добавлять вложения

Перейти:  
Для Мосгорсуда, Роскомнадзора и рекламодателей: mosgorsud-torrent[собачка]yandex.ru
 Вход
ppkBB3cker v.2 © 2008-2014 @ PPK
[ Time : 0.063s | 15 Queries | GZIP : Off ]

cron