img image001 image001 image001 image001 image001 image001 image001 image001 image001 image001 image001 image001 image001 image001 image001

Planets Sun Sun Sun
Статистика раздачи
Автор: Nickolas3434 | Размер: 729.91 МБ | Добавлен: 15 июн 2015
Раздают: 249    Качают: 33
Скачать торрент
Скачать торрент
Описание торрента

СообщениеДобавлено: 15 июн 2015 


Название: Школа монстров: Мотор!
Оригинальное название: Monster High: Fright On!
Год выхода: 2011
Жанр: мультфильм, семейный
Режиссер: Виктор Даль Шеле / Victor Dal Chele, Альфред Гимено / Alfred Gimeno
В ролях: Лора Бэйли, Оги Бэнкс, Кэм Кларк, Мальколм Дэнар, Деби Дерриберри, Эрин Фицджералд, Кейт Хиггинс, Джонатан Липоу, Джордж Ньюберн, Оду Паден

О фильме:
В Школе монстров важное событие! Благодаря тому, что в этой школе, в мире и гармонии живут монстры всех мастей, её решили расширить! В скором будущем, в неё прибудут два самых больших клана — вампиры и оборотни. Однако их прошлое не столь безмятежное, как вы могли бы подумать — монстры этих двух кланов издавна не любят друг друга и между ними идёт негласная война, а учитывая тот факт, что теперь они будут ещё и учиться вместе, то можно предположить что открытое столкновение этих двух кланов просто неизбежно. Клыки против шерсти — кто же победит? Или, быть может, нашим подругам удастся помирить две издавна враждующие стороны?

Страна: США
Студия: Mattel Entertainment
Продолжительность: 00:46:03
Перевод: Дублированный Лицензия BD EUR

Файл
Кодек: XviD
Качество: BDRip
Видео: 720x400 (1.80:1), 23.976 fps, XviD build 73 ~1818 kbps avg, 0.26 bit/pixel
Звук:
Аудио #1: Русский: 48 kHz, AC3 Dolby Digital, 2/0 (L,R) ch, ~192.00 kbps avg [Дубляж]
Аудио #2: Английский: 48 kHz, AC3 Dolby Digital, 2/0 (L,R) ch, ~192.00 kbps avg [Оригинал]
Субтитры: отсутствуют

General
Complete name : G:Monster High2Monster_High_Fright_On_BDRip_DUB.avi
Format : AVI
Format/Info : Audio Video Interleave
File size : 730 MiB
Duration : 46mn 3s
Overall bit rate : 2 216 Kbps
Movie name : Monster High: Fright On! [ripped by domin8]
Genre : Child's
Writing application : VirtualDubMod 1.5.10.3 | www.virtualdub-fr.org || (build 2550/release)
Original source form/Name : Cartoon
Video #0
ID : 0
Format : MPEG-4 Visual
Format profile : Advanced Simple@L5
Format settings, BVOP : Yes
Format settings, QPel : No
Format settings, GMC : No warppoints
Format settings, Matrix : Custom
Codec ID : XVID
Codec ID/Hint : XviD
Duration : 46mn 3s
Bit rate : 1 818 Kbps
Width : 720 pixels
Height : 400 pixels
Display aspect ratio : 16:9
Frame rate : 23.976 fps
Color space : YUV
Chroma subsampling : 4:2:0
Bit depth : 8 bits
Scan type : Progressive
Bits/(Pixel*Frame) : 0.263
Stream size : 599 MiB (82%)
Writing library : XviD 73
Audio #1
ID : 1
Format : AC-3
Format/Info : Audio Coding 3
Mode extension : CM (complete main)
Codec ID : 2000
Duration : 46mn 3s
Bit rate mode : Constant
Bit rate : 192 Kbps
Channel(s) : 2 channels
Channel positions : Front: L R
Sampling rate : 48.0 KHz
Bit depth : 16 bits
Stream size : 63.2 MiB (9%)
Alignment : Split accross interleaves
Interleave, duration : 42 ms (1.00 video frame)
Interleave, preload duration : 500 ms
Title : Russian
Audio #2
ID : 2
Format : AC-3
Format/Info : Audio Coding 3
Mode extension : CM (complete main)
Codec ID : 2000
Duration : 46mn 3s
Bit rate mode : Constant
Bit rate : 192 Kbps
Channel(s) : 2 channels
Channel positions : Front: L R
Sampling rate : 48.0 KHz
Bit depth : 16 bits
Stream size : 63.2 MiB (9%)
Alignment : Split accross interleaves
Interleave, duration : 42 ms (1.00 video frame)
Interleave, preload duration : 500 ms
Title : English






Релиз от: rs.bandito.tv___Автор рипа: domin8



   Похожие торренты   Торрент   Размер 
В этой теме нет новых непрочитанных сообщений. Школа монстров: Мотор! / Monster High: Fright On! (2012) BDRip-AVC | iPad | D

104 | 17

699.75 МБ

В этой теме нет новых непрочитанных сообщений. Школа монстров: Мотор! / Monster High: Fright On! (2012) BDRip-AVC | iPad | D

27 | 15

698.7 МБ

В этой теме нет новых непрочитанных сообщений. Школа монстров: Страх! Камера! Мотор! / Monster High: Frights, Camera, Action! (2014) BDRip от Deadmauvlad | Лицензия

638 | 114

746.63 МБ

В этой теме нет новых непрочитанных сообщений. Школа монстров: Страх! Камера! Мотор! / Monster High: Frights, Camera, Action! (2014) HDRip

1510 | 156

1.37 ГБ

В этой теме нет новых непрочитанных сообщений. Школа монстров: Дилогия / Monster High: Dilogy (2011) HDRip | Лицензия

194 | 31

1.46 ГБ

В этой теме нет новых непрочитанных сообщений. Школа монстров: Дилогия / Monster High: Dilogy (2011-2012) DVD9 | Лицензия

88 | 11

5.85 ГБ

В этой теме нет новых непрочитанных сообщений. Школа монстров: Монстрические мутации / Monster High: Freaky Fusion (2014) BDRip от Deadmauvlad | D | Лицензия

1172 | 96

1.45 ГБ




Вы не можете начинать темы
Вы не можете отвечать на сообщения
Вы не можете редактировать свои сообщения
Вы не можете удалять свои сообщения
Вы не можете добавлять вложения

Перейти:  
Для Мосгорсуда, Роскомнадзора и рекламодателей: mosgorsud-torrent[собачка]yandex.ru
 Вход
ppkBB3cker v.2 © 2008-2014 @ PPK
[ Time : 0.049s | 14 Queries | GZIP : Off ]

Торрент трекер RUTOR.IN, Не можете зайти на rutor.org? Какой новый адрес рутор? Какое зеркало рутор? Не работает rutor.org и зеркала? Тогда наш торрент специально для вас. Rutor.in неофициальное зеркало rutor. В случае если у Вас заблокирован rutor или вдруг Вы не можете на него зайти, то Вы без труда сможете скачать бесплатно и без рекламы последние новинки кино, игр, сериалов и прочего у нас, на Rutor.in. Не нужно использовать прокси, чтобы зайти на рутор, достаточно воспользоваться нашим ресурсом. Все новые фильмы, игры, сериалы, книги и музыка за 2013 и 2014 годы через торрент бесплатно. Скачивайте фильмы в хорошем качестве, игры для пк, xbox, playstation без регистрации. У нас вы найдете новые Зарубежные сериалы и Русские сериалы 2013, 2014, 2015 годов. Оставайтесь с нами, качайте любимые фильмы, игры, сериалы, книги и музыку.