img image001 image001 image001 image001 image001 image001 image001 image001 image001 image001 image001 image001 image001 image001 image001

Planets Sun Sun Sun
Статистика раздачи
Автор: Nickolas3434 | Размер: 1.06 ГБ | Добавлен: 15 июн 2015
Раздают: 181    Качают: 46
Скачать торрент
Скачать торрент
Описание торрента

СообщениеДобавлено: 15 июн 2015 


Название: Школа монстров: Побег с Острова черепов
Оригинальное название: Monster High: Escape from Skull Shores
Год выхода: 2012
Жанр: мультфильм, семейный
Режиссер: Стив Болл / Steve Ball, Эндрю Дункан / Andrew Duncan
В ролях: Лора Бэйли, Оги Бэнкс, Кэм Кларк, Мальколм Дэнар, Деби Дерриберри, Эрин Фицджералд, Кейт Хиггинс, Джонатан Липов, Джордж Ньюберн, Оду Паден

О фильме:
Девочки готовятся к самой КЛЫКассной вечеринке во время весенних каникул в Школе Монстров: Побег с Острова Черепов. Но вскоре их яхта терпит крушение на загадочном острове, где Фрэнки Штейн похищает чудовище. И, в конечном итоге, непонятно, кому же из них потребуется помощь!

Страна: США
Студия: Mattel Entertainment
Продолжительность: 00:46:02
Перевод: Дублированный Лицензия BD EUR
Файл
Кодек: XviD
Качество: BDRip
Видео: 720x400 (1.80:1), 23.976 fps, XviD build 73 ~2393 kbps avg, 0.35 bit/pixel
Аудио #1: Русский: 48 kHz, AC3 Dolby Digital, 3/2 (L,C,R,l,r) + LFE ch, ~448.00 kbps avg [Дубляж]
Аудио #2: Английский: 48 kHz, AC3 Dolby Digital, 3/2 (L,C,R,l,r) + LFE ch, ~448.00 kbps avg [Оригинал]
Субтитры: отсутствуют

General
Complete name : C:UsersX666DesktopMonster HighMonster_High_Escape_from_Skull_Shores_BDRip_DUB.avi
Format : AVI
Format/Info : Audio Video Interleave
File size : 1.06 GiB
Duration : 46mn 2s
Overall bit rate : 3 305 Kbps
Movie name : Monster High: Escape from Skull Shores [ripped by domin8]
Genre : Child's
Writing application : VirtualDubMod 1.5.10.3 | www.virtualdub-fr.org || (build 2550/release)
Original source form/Name : Cartoon
Video #0
ID : 0
Format : MPEG-4 Visual
Format profile : Advanced Simple@L5
Format settings, BVOP : Yes
Format settings, QPel : No
Format settings, GMC : No warppoints
Format settings, Matrix : Custom
Codec ID : XVID
Codec ID/Hint : XviD
Duration : 46mn 2s
Bit rate : 2 395 Kbps
Width : 720 pixels
Height : 400 pixels
Display aspect ratio : 16:9
Frame rate : 23.976 fps
Color space : YUV
Chroma subsampling : 4:2:0
Bit depth : 8 bits
Scan type : Progressive
Bits/(Pixel*Frame) : 0.347
Stream size : 789 MiB (72%)
Writing library : XviD 73
Audio #1
ID : 1
Format : AC-3
Format/Info : Audio Coding 3
Mode extension : CM (complete main)
Codec ID : 2000
Duration : 46mn 2s
Bit rate mode : Constant
Bit rate : 448 Kbps
Channel(s) : 6 channels
Channel positions : Front: L C R, Side: L R, LFE
Sampling rate : 48.0 KHz
Bit depth : 16 bits
Stream size : 148 MiB (14%)
Alignment : Split accross interleaves
Interleave, duration : 42 ms (1.00 video frame)
Interleave, preload duration : 500 ms
Title : Russian
Audio #2
ID : 2
Format : AC-3
Format/Info : Audio Coding 3
Mode extension : CM (complete main)
Codec ID : 2000
Duration : 46mn 2s
Bit rate mode : Constant
Bit rate : 448 Kbps
Channel(s) : 6 channels
Channel positions : Front: L C R, Side: L R, LFE
Sampling rate : 48.0 KHz
Bit depth : 16 bits
Stream size : 148 MiB (14%)
Alignment : Split accross interleaves
Interleave, duration : 42 ms (1.00 video frame)
Interleave, preload duration : 500 ms
Title : English










Релиз от: rs.bandito.tv___Автор рипа: domin8



   Похожие торренты   Торрент   Размер 
В этой теме нет новых непрочитанных сообщений. Школа монстров: Побег с побережья черепа / Monster High: Escape from Skull Shores (2012) BDRip-AVC | iPad | D

110 | 12

828.22 МБ

В этой теме нет новых непрочитанных сообщений. Школа монстров: Побег с побережья черепа / Monster High: Escape from Skull Shores (2012) BDRip-AVC от HELLYWOOD | Лицензия

565 | 31

1.46 ГБ

В этой теме нет новых непрочитанных сообщений. Школа монстров: Мотор! / Monster High: Fright On! (2012) BDRip-AVC | iPad | D

104 | 17

699.75 МБ

В этой теме нет новых непрочитанных сообщений. Школа монстров: Мотор! / Monster High: Fright On! (2012) BDRip-AVC | iPad | D

27 | 15

698.7 МБ

В этой теме нет новых непрочитанных сообщений. Школа монстров: Классные девчонки / Monster High: Ghoul's Rule! (2012) BDRip 1080p

19 | 7

6 ГБ

В этой теме нет новых непрочитанных сообщений. Школа монстров / Monster High: Ghoul's Rule! (2012) HDRip | L2

31 | 15

1.05 ГБ

В этой теме нет новых непрочитанных сообщений. Школа монстров: Дилогия / Monster High: Dilogy (2011-2012) DVD9 | Лицензия

88 | 11

5.85 ГБ




Вы не можете начинать темы
Вы не можете отвечать на сообщения
Вы не можете редактировать свои сообщения
Вы не можете удалять свои сообщения
Вы не можете добавлять вложения

Перейти:  
Для Мосгорсуда, Роскомнадзора и рекламодателей: mosgorsud-torrent[собачка]yandex.ru
 Вход
ppkBB3cker v.2 © 2008-2014 @ PPK
[ Time : 0.043s | 16 Queries | GZIP : Off ]

Торрент трекер RUTOR.IN, Не можете зайти на rutor.org? Какой новый адрес рутор? Какое зеркало рутор? Не работает rutor.org и зеркала? Тогда наш торрент специально для вас. Rutor.in неофициальное зеркало rutor. В случае если у Вас заблокирован rutor или вдруг Вы не можете на него зайти, то Вы без труда сможете скачать бесплатно и без рекламы последние новинки кино, игр, сериалов и прочего у нас, на Rutor.in. Не нужно использовать прокси, чтобы зайти на рутор, достаточно воспользоваться нашим ресурсом. Все новые фильмы, игры, сериалы, книги и музыка за 2013 и 2014 годы через торрент бесплатно. Скачивайте фильмы в хорошем качестве, игры для пк, xbox, playstation без регистрации. У нас вы найдете новые Зарубежные сериалы и Русские сериалы 2013, 2014, 2015 годов. Оставайтесь с нами, качайте любимые фильмы, игры, сериалы, книги и музыку.