img image001 image001 image001 image001 image001 image001 image001 image001 image001 image001 image001 image001 image001 image001 image001

Planets Sun Sun Sun
Статистика раздачи
Автор: Nickolas3434 | Размер: 4.37 ГБ | Добавлен: 20 июн 2015
Раздают: 228    Качают: 26
Скачать торрент
Скачать торрент
Описание торрента

СообщениеДобавлено: 20 июн 2015 


Информация о фильме
Название: Самолеты
Оригинальное название: Planes
Год выхода: 2013
Жанр: мультфильм, комедия, приключения
Режиссер: Клэй Холл
В ролях: Дейн Кук (Dusty Crophopper, озвучка), Стейси Кич (Skipper, озвучка), Брэд Гэррет (Chug, озвучка), Тери Хэтчер (Dottie, озвучка), Джулия Луис-Дрейфус (Rochelle, озвучка), Приянка Чопра (Ishani, озвучка), Джон Клиз (Bulldog, озвучка), Седрик «Развлекатель» (Leadbottom, озвучка), Карлос Аласраки (El Chupacabra, дополнительные голоса, озвучка), Роджер Крэйг Смит (Ripslinger, дополнительные голоса, озвучка), Энтони Эдвардс (Echo, озвучка), Вэл Килмер (Bravo, озвучка)
О фильме:
Дасти Полейполе - скромный трудяга-самолет, работающий сельскохозяйственным распылителем на заштатном провинциальном аэродроме. Однако это не мешает ему мечтать о том, чтобы однажды принять участие в кругосветных гонках самых быстрых самолетов. Одна незадача - Дасти панически боится большой высоты. Поэтому, когда волею случая он все же попадает в число участников отборочного тура воздушных соревнований, ему приходится искать помощи у ветерана военно-морской авиации, отставного истребителя Шкипера. С помощью мудрого наставника Дасти сможет преодолеть свои слабости и бросить вызов надменному чемпиону Рипслингеру, а весь мир будет с замиранием сердца следить за гонкой в небесах!..

Страна: США
Продолжительность: 01:31:35
Перевод: Профессиональный (полное дублирование)
Файл
Кодек: h264
Качество: BDRip 1080 от SuperMin
Видео: 1920х1080 (16:9), 6195 Kbps, 23.976 fps
Звук: Русский (AC-3, 6ch, 640 kbps)
Субтитры: русские
x264 [info]: frame I:1153 Avg QP:13.52 size:317136
x264 [info]: frame P:44575 Avg QP:17.57 size: 54298
x264 [info]: frame B:86027 Avg QP:21.86 size: 17064
x264 [info]: consecutive B-frames: 6.3% 6.0% 55.9% 15.8% 7.8% 6.6% 0.7% 0.4% 0.6%

Video
ID : 1
Format : AVC
Format/Info : Advanced Video Codec
Format profile : High@L4.1
Format settings, CABAC : Yes
Format settings, ReFrames : 4 frames
Codec ID : V_MPEG4/ISO/AVC
Duration : 1h 31mn
Bit rate : 6 195 Kbps
Width : 1 920 pixels
Height : 1 080 pixels
Display aspect ratio : 16:9
Frame rate mode : Constant
Frame rate : 23.976 fps
Color space : YUV
Chroma subsampling : 4:2:0
Bit depth : 8 bits
Scan type : Progressive
Bits/(Pixel*Frame) : 0.125
Stream size : 3.88 GiB (89%)
Writing library : x264 core 146 r2538 121396c
Encoding settings : cabac=1 / ref=4 / deblock=1:0:0 / analyse=0x3:0x113 / me=umh / subme=10 / psy=1 / psy_rd=1.00:0.00 / mixed_ref=1 / me_range=32 / chroma_me=1 / trellis=2 / 8x8dct=1 / cqm=0 / deadzone=21,11 / fast_pskip=0 / chroma_qp_offset=-2 / threads=3 / lookahead_threads=1 / sliced_threads=0 / nr=0 / decimate=1 / interlaced=0 / bluray_compat=0 / constrained_intra=0 / bframes=8 / b_pyramid=2 / b_adapt=2 / b_bias=0 / direct=1 / weightb=1 / open_gop=0 / weightp=2 / keyint=230 / keyint_min=22 / scenecut=40 / intra_refresh=0 / rc_lookahead=40 / rc=2pass / mbtree=1 / bitrate=6195 / ratetol=1.0 / qcomp=0.60 / qpmin=0 / qpmax=69 / qpstep=4 / cplxblur=20.0 / qblur=0.5 / vbv_maxrate=62500 / vbv_bufsize=78125 / nal_hrd=none / filler=0 / ip_ratio=1.40 / aq=1:0.80
Default : Yes
Forced : No
Audio
ID : 2
Format : AC-3
Format/Info : Audio Coding 3
Mode extension : CM (complete main)
Format settings, Endianness : Big
Codec ID : A_AC3
Duration : 1h 31mn
Bit rate mode : Constant
Bit rate : 640 Kbps
Channel count : 6 channels
Channel positions : Front: L C R, Side: L R, LFE
Sampling rate : 48.0 KHz
Bit depth : 16 bits
Compression mode : Lossy
Stream size : 419 MiB (9%)
Default : Yes
Forced : No
Text #1
ID : 3
Format : UTF-8
Codec ID : S_TEXT/UTF8
Codec ID/Info : UTF-8 Plain Text
Language : Russian
Default : Yes
Forced : No
Text #2
ID : 4
Format : UTF-8
Codec ID : S_TEXT/UTF8
Codec ID/Info : UTF-8 Plain Text
Language : Russian
Default : No
Forced : No


Релиз от: SuperMin



   Похожие торренты   Торрент   Размер 
В этой теме нет новых непрочитанных сообщений. Самолёты. Плюшка / Planes. Dipper (2014) BDRip 720р от SuperMin

122 | 10

63.37 МБ

В этой теме нет новых непрочитанных сообщений. Самолёты. Cyпepфocфaт-плюc / Planes. Vitaminamulch (2014) BDRip 720р от SuperMin

148 | 11

194.69 МБ

В этой теме нет новых непрочитанных сообщений. Самолёты. Пожарный десант / Planes. Smoke jumpers (2014) BDRip 720р от SuperMin

148 | 11

72.86 МБ

В этой теме нет новых непрочитанных сообщений. Самолеты / Planes (2013) BDRip | Лицензия

1268 | 563

1.37 ГБ

В этой теме нет новых непрочитанных сообщений. Самолеты / Planes (2013) BDRip 1080p

32 | 6

7.87 ГБ

В этой теме нет новых непрочитанных сообщений. Самолеты / Planes (2013) BDRip 1080p

48 | 7

5.76 ГБ

В этой теме нет новых непрочитанных сообщений. Самолеты / Planes (2013) BDRip 1080p | Лицензия

41 | 6

6.93 ГБ




Вы не можете начинать темы
Вы не можете отвечать на сообщения
Вы не можете редактировать свои сообщения
Вы не можете удалять свои сообщения
Вы не можете добавлять вложения

Перейти:  
Для Мосгорсуда, Роскомнадзора и рекламодателей: mosgorsud-torrent[собачка]yandex.ru
 Вход
ppkBB3cker v.2 © 2008-2014 @ PPK
[ Time : 0.062s | 14 Queries | GZIP : Off ]

Торрент трекер RUTOR.IN, Не можете зайти на rutor.org? Какой новый адрес рутор? Какое зеркало рутор? Не работает rutor.org и зеркала? Тогда наш торрент специально для вас. Rutor.in неофициальное зеркало rutor. В случае если у Вас заблокирован rutor или вдруг Вы не можете на него зайти, то Вы без труда сможете скачать бесплатно и без рекламы последние новинки кино, игр, сериалов и прочего у нас, на Rutor.in. Не нужно использовать прокси, чтобы зайти на рутор, достаточно воспользоваться нашим ресурсом. Все новые фильмы, игры, сериалы, книги и музыка за 2013 и 2014 годы через торрент бесплатно. Скачивайте фильмы в хорошем качестве, игры для пк, xbox, playstation без регистрации. У нас вы найдете новые Зарубежные сериалы и Русские сериалы 2013, 2014, 2015 годов. Оставайтесь с нами, качайте любимые фильмы, игры, сериалы, книги и музыку.