img image001 image001 image001 image001 image001 image001 image001 image001 image001 image001 image001 image001 image001 image001 image001

Planets Sun Sun Sun
Статистика раздачи
Автор: Nickolas3434 | Размер: 2.08 ГБ | Добавлен: 22 июн 2015
Раздают: 245    Качают: 24
Скачать торрент
Скачать торрент
Описание торрента

СообщениеДобавлено: 22 июн 2015 

Приключения поросенка Фунтика
Год выпуска: 1986-1988
Страна: СССР
Жанр: Мультфильм, приключения
Режиссёр: Анатолий Солин
В ролях: Зоя Пыльнова, Армен Джигарханян, Ирина Муравьёва, Ольга Аросева, Спартак Мишулин, Юрий Волынцев, Анатолий Баранцев, Георгий Бурков, Борис Рунге, Раиса Мухаметшина
Продолжительность: 00:39:28
4 х ~ 00:10:00
Список серий:
1. Неуловимый Фунтик
2. Фунтик и сыщики
3. Фунтик и старушка с усами
4. Фунтик и цирк
Перевод: Не требуется
Субтитры: Нет
Описание: Певая часть: Фунтик сбежал от своей хозяйки, госпожи Беладонны, потому что не хотел обманывать детей. Хозяйка же думала только о наживе и безжалостно преследовала поросенка, который мог приносить ей неплохой доход
Вторая часть: Об отважном и талантливом поросенке Фунтике, сбежавшем от коварной хозяйки универмага «Слезы ребенка» госпожи Белладонны. Фильм второй. О том, как злая и жадная хозяйка универмага «Слеза ребенка» госпожа Белладонна пыталась выкрасть у клоуна Фокуса-Мокуса сбежавшего от нее поросенка Фунтика.
Третья часть: Переодетая в мужской костюм Белладонна пытается похитить Фунтика. Ей помогают тупой начальник полиции Фокстрот и суетливые сыщики Добер и Пинчер.
Четвёртая часть: О приключениях поросенка Фунтика в цирке...

Автор ремукса: Egorijj.Alien
Качество: DVDRemux
Формат: MKV
Видео кодек: MPEG2
Аудио кодек: AC3
Видео: 6940 kbps, 720x576 (4:3), 25 fps
Аудио: AC3, 448 kbps, 1 ch, 48,0 khz


General
Unique ID : 182574325291471261365154453415602812447 (0x895A8938500EEE53A163720FFD0DF61F)
Complete name : C:UsersG5030DesktopVTS_02_1.mkv
Format : Matroska
Format version : Version 4 / Version 2
File size : 2.08 GiB
Duration : 39mn 28s
Overall bit rate mode : Variable
Overall bit rate : 7 538 Kbps
Encoded date : UTC 2015-06-20 04:03:59
Writing application : mkvmerge v7.9.0 ('Birds') 64bit
Writing library : libebml v1.3.1 + libmatroska v1.4.2
DURATION : 00:39:28.192000000
NUMBER_OF_FRAMES : 74006
NUMBER_OF_BYTES : 132618752
_STATISTICS_WRITING_APP : mkvmerge v7.9.0 ('Birds') 64bit
_STATISTICS_WRITING_DATE_UTC : 2015-06-20 04:03:59
_STATISTICS_TAGS : BPS DURATION NUMBER_OF_FRAMES NUMBER_OF_BYTES
Video
ID : 1
Format : MPEG Video
Format version : Version 2
Format profile : Main@Main
Format settings, BVOP : No
Format settings, Matrix : Default
Codec ID : V_MPEG2
Codec ID/Info : MPEG 1 or 2 Video
Duration : 39mn 28s
Bit rate mode : Variable
Bit rate : 6 940 Kbps
Maximum bit rate : 9 000 Kbps
Width : 720 pixels
Height : 576 pixels
Display aspect ratio : 4:3
Frame rate mode : Constant
Frame rate : 25.000 fps
Standard : PAL
Color space : YUV
Chroma subsampling : 4:2:0
Bit depth : 8 bits
Scan type : Interlaced
Scan order : Bottom Field First
Compression mode : Lossy
Bits/(Pixel*Frame) : 0.669
Time code of first frame : 00:00:00:00
Time code source : Group of pictures header
Stream size : 1.91 GiB (92%)
Default : Yes
Forced : No
Audio
ID : 2
Format : AC-3
Format/Info : Audio Coding 3
Mode extension : CM (complete main)
Format settings, Endianness : Big
Codec ID : A_AC3
Duration : 39mn 28s
Bit rate mode : Constant
Bit rate : 448 Kbps
Channel(s) : 1 channel
Channel positions : Front: C
Sampling rate : 48.0 KHz
Bit depth : 16 bits
Compression mode : Lossy
Delay relative to video : -80ms
Stream size : 126 MiB (6%)
Default : Yes
Forced : No



   Похожие торренты   Торрент   Размер 
В этой теме нет новых непрочитанных сообщений. Приключения поросёнка Фунтика (1986-1988) DVDRip

164 | 5

699.13 МБ

В этой теме нет новых непрочитанных сообщений. Приключения поросенка Фунтика (1986-1988) DVDRip от New-Team

637 | 37

744.42 МБ

В этой теме нет новых непрочитанных сообщений. Приключения поросенка Фунтика (1986-1988) DVDRip-AVC от New-Team

542 | 18

744.46 МБ

В этой теме нет новых непрочитанных сообщений. Приключения поросенка Фунтика / Сборник мультфильмов (1986-1988) DVD5

48 | 8

3.7 ГБ

В этой теме нет новых непрочитанных сообщений. Возвращение блудного попугая [01-03 из 05] (1984-1988) DVDRemux

72 | 5

1.23 ГБ

В этой теме нет новых непрочитанных сообщений. Ну, и девушки / Некоторые девчонки / Some Girls (1988) DVDRemux | P

56 | 32

3.97 ГБ

В этой теме нет новых непрочитанных сообщений. Новые приключения Теннесси Бака / Дальнейшие приключения Теннесси Бака / Further Adventures Of Tennessee Buck (1988) VHSRip

207 | 50

1.37 ГБ




Вы не можете начинать темы
Вы не можете отвечать на сообщения
Вы не можете редактировать свои сообщения
Вы не можете удалять свои сообщения
Вы не можете добавлять вложения

Перейти:  
Для Мосгорсуда, Роскомнадзора и рекламодателей: mosgorsud-torrent[собачка]yandex.ru
 Вход
ppkBB3cker v.2 © 2008-2014 @ PPK
[ Time : 0.042s | 16 Queries | GZIP : Off ]

Торрент трекер RUTOR.IN, Не можете зайти на rutor.org? Какой новый адрес рутор? Какое зеркало рутор? Не работает rutor.org и зеркала? Тогда наш торрент специально для вас. Rutor.in неофициальное зеркало rutor. В случае если у Вас заблокирован rutor или вдруг Вы не можете на него зайти, то Вы без труда сможете скачать бесплатно и без рекламы последние новинки кино, игр, сериалов и прочего у нас, на Rutor.in. Не нужно использовать прокси, чтобы зайти на рутор, достаточно воспользоваться нашим ресурсом. Все новые фильмы, игры, сериалы, книги и музыка за 2013 и 2014 годы через торрент бесплатно. Скачивайте фильмы в хорошем качестве, игры для пк, xbox, playstation без регистрации. У нас вы найдете новые Зарубежные сериалы и Русские сериалы 2013, 2014, 2015 годов. Оставайтесь с нами, качайте любимые фильмы, игры, сериалы, книги и музыку.
cron