img image001 image001 image001 image001 image001 image001 image001 image001 image001 image001 image001 image001 image001 image001 image001

Planets Sun Sun Sun
Статистика раздачи
Автор: Nickolas3434 | Размер: 136.22 МБ | Добавлен: 24 июн 2015
Раздают: 598    Качают: 18
Скачать торрент
Скачать торрент
Описание торрента

СообщениеДобавлено: 24 июн 2015 


Год выпуска: 2015
Производство: США
Жанр: мультфильм, комедия, семейный
Перевод: Дублированный
Режиссер: Генндий Тартаковский
Продюсеры: Мишель Мурдокка, Аллен Коверт, Адам Сэндлер
Актеры: Адам Сэндлер, Селена Гомес, Энди Сэмберг, Стив Бушеми, Кигэн-Майкл Ки, Дэвид Спейд, Мэл Брукс, Кевин Джеймс, Фрэн Дрешер, Крис Кэттэн
Описание фильма:
Граф Дракула выдает свою очаровательную дочь за парня из мира людей, и у молодой «смешанной» пары рождается сын. Теперь молодой семейке предстоит знакомство со всеми скелетами в шкафах отеля для монстров…
Дата мировой премьеры: 21 сентября 2015
Дата российской премьеры: 22 октября 2015

Продолжительность: 00:02:22
Качество видео: WEBRip
Видеокодек: MPEG-4 AVC/H.264
Битрейт видео: 7897 Кбит/сек
Размер кадра: 1920x1036
Аудиокодек: AAC
Битрейт аудио: 99,5 Кбит/сек
Общее
Полное имя : Hotel-Transylvania-2.mp4
Формат : MPEG-4
Профиль формата : Base Media
Идентификатор кодека : isom
Размер файла : 136 Мбайт
Продолжительность : 2 м. 22 с.
Режим общего битрейта : Переменный
Общий поток : 7999 Кбит/сек
Дата кодирования : UTC 2015-06-22 07:48:45
Дата пометки : UTC 2015-06-22 07:48:45
Программа кодирования : Lavf51.12.1
Видео
Идентификатор : 1
Формат : AVC
Формат/Информация : Advanced Video Codec
Профиль формата : Baseline@L4
Параметр CABAC формата : Нет
Параметр ReFrames формата : 1 кадр
Параметр GOP формата : M=1, N=12
Идентификатор кодека : avc1
Идентификатор кодека/Информация : Advanced Video Coding
Продолжительность : 2 м. 22 с.
Битрейт : 7897 Кбит/сек
Ширина : 1920 пикселей
Высота : 1036 пикселей
Соотношение сторон : 1,85:1
Режим частоты кадров : Постоянный
Частота кадров : 23,976 кадра/сек
Цветовое пространство : YUV
Субдискретизация насыщенности : 4:2:0
Битовая глубина : 8 бит
Тип развёртки : Прогрессивная
Бит/(Пиксели*Кадры) : 0.166
Размер потока : 134 Мбайт (99%)
Дата кодирования : UTC 2015-06-22 07:48:45
Дата пометки : UTC 2015-06-22 07:48:45
Аудио
Идентификатор : 2
Формат : AAC
Формат/Информация : Advanced Audio Codec
Профиль формата : LC
Идентификатор кодека : 40
Продолжительность : 2 м. 22 с.
Вид битрейта : Переменный
Битрейт : 99,5 Кбит/сек
Каналы : 2 канала
Расположение каналов : Front: L R
Частота : 48,0 КГц
Метод сжатия : С потерями
Размер потока : 1,69 Мбайт (1%)
Дата кодирования : UTC 2015-06-22 07:48:45
Дата пометки : UTC 2015-06-22 07:48:45

Скриншоты








   Похожие торренты   Торрент   Размер 
В этой теме нет новых непрочитанных сообщений. Монстры на каникулах 2 / Hotel Transylvania 2 (2015) WEBRip 1080p | Чистый звук

4825 | 87

4.48 ГБ

В этой теме нет новых непрочитанных сообщений. Монстры на каникулах 2 / Hotel Transylvania 2 (2015) WEBRip 1080p | Звук с CAMRip

946 | 12

4.48 ГБ

В этой теме нет новых непрочитанных сообщений. Монстры на каникулах 2 / Hotel Transylvania 2 (2015) WEBRip | Чистый звук

1363 | 53

744.5 МБ

В этой теме нет новых непрочитанных сообщений. Монстры на каникулах 2 / Hotel Transylvania 2 (2015) WEBRip | Звук с CAMRip

448 | 75

699.57 МБ

В этой теме нет новых непрочитанных сообщений. Монстры на каникулах 2 / Hotel Transylvania 2 (2015) WEBRip | Звук с CAMRip

1739 | 7

1.37 ГБ

В этой теме нет новых непрочитанных сообщений. Монстры на каникулах 2 / Hotel Transylvania 2 (2015) WEBRip | Чистый звук

5326 | 71

1.45 ГБ

В этой теме нет новых непрочитанных сообщений. Монстры на каникулах 2 / Hotel Transylvania 2 (2015) WEBRip 720p | Звук с CAMRip

641 | 11

3.03 ГБ




Вы не можете начинать темы
Вы не можете отвечать на сообщения
Вы не можете редактировать свои сообщения
Вы не можете удалять свои сообщения
Вы не можете добавлять вложения

Перейти:  
Для Мосгорсуда, Роскомнадзора и рекламодателей: mosgorsud-torrent[собачка]yandex.ru
 Вход
ppkBB3cker v.2 © 2008-2014 @ PPK
[ Time : 0.069s | 15 Queries | GZIP : Off ]

Торрент трекер RUTOR.IN, Не можете зайти на rutor.org? Какой новый адрес рутор? Какое зеркало рутор? Не работает rutor.org и зеркала? Тогда наш торрент специально для вас. Rutor.in неофициальное зеркало rutor. В случае если у Вас заблокирован rutor или вдруг Вы не можете на него зайти, то Вы без труда сможете скачать бесплатно и без рекламы последние новинки кино, игр, сериалов и прочего у нас, на Rutor.in. Не нужно использовать прокси, чтобы зайти на рутор, достаточно воспользоваться нашим ресурсом. Все новые фильмы, игры, сериалы, книги и музыка за 2013 и 2014 годы через торрент бесплатно. Скачивайте фильмы в хорошем качестве, игры для пк, xbox, playstation без регистрации. У нас вы найдете новые Зарубежные сериалы и Русские сериалы 2013, 2014, 2015 годов. Оставайтесь с нами, качайте любимые фильмы, игры, сериалы, книги и музыку.
cron