img image001 image001 image001 image001 image001 image001 image001 image001 image001 image001 image001 image001 image001 image001 image001

Planets Sun Sun Sun
Статистика раздачи
Автор: Nickolas3434 | Размер: 3.84 ГБ | Добавлен: 24 июн 2015
Раздают: 410    Качают: 50
Скачать торрент
Скачать торрент
Описание торрента

СообщениеДобавлено: 24 июн 2015 



Название: Губка Боб в 3D
Оригинальное название: The SpongeBob Movie: Sponge Out of Water
Год выпуска: 2015
Страна: США
Жанр: мультфильм, комедия, приключения, семейный
Продолжительность: 01:32:34
Перевод: Дубляж
Субтитры: русские (Форсированные), русские (Полные), английские (Полные)

Режиссер: Пол Тиббит / Paul Tibbitt

В ролях: Том Кенни (SpongeBob / Gary / Agreeable Mob Member / Waffle, озвучка), Антонио Бандерас (Burger Beard), Эрик Бауза (Seagull, озвучка), Тим Конуэй (Seagull, озвучка), Эдди Дизен (Seagull, озвучка), Роб Полсен (Seagull, озвучка), Кевин Майкл Ричардсон (Seagull, озвучка), Эйприл Стюарт (Seagull, озвучка), Кри Саммер (Seagull, озвучка), Билли Уэст (Seagull, озвучка), Карлос Аласраки (Seagull / Dead Parrot, озвучка), Нолан Норт (Seagull / Dead Parrot / Pigeon Cabbie, озвучка)


Описание:
Всемирный любимчик со дна океана Губка Боб Квадратные Штаны должен спасти свой глубоководный мир, но для этого ему и его друзьям придется выбраться на сушу и оказаться в нашем.


Рейтинг

imdb.com: 6.20 (20 732)
MPAA: PG - Рекомендуется присутствие родителей


Качество: BDRip-AVC 60fps
Формат: MKV
Видео кодек: AVC
Аудио кодек:AC3
Видео: AVC, 1024x576 (16:9), 5300 kbps, 59,940 fps, 0,150 bpp
Аудио: русский / AC3 / 5.1 / 48 kHz / 640 kbps / 16 bit |Дубляж|
Навигация по главам: есть



General
Unique ID : 225648970294450266794017455761884864436 (0xA9C2692F7FAB51388FAD7458B6D65FB4)
Format : Matroska
Format version : Version 4 / Version 2
File size : 3.84 GiB
Duration : 1h 32mn
Overall bit rate : 5 946 Kbps
Movie name : Tiberiumsun69
Encoded date : UTC 2015-06-24 11:44:17
Writing application : mkvmerge v7.9.0 ('Birds') 64bit
Writing library : libebml v1.3.1 + libmatroska v1.4.2
Attachment : Yes / Yes
Video
ID : 1
Format : AVC
Format/Info : Advanced Video Codec
Format profile : High@L4.1
Format settings, CABAC : Yes
Format settings, ReFrames : 4 frames
Codec ID : V_MPEG4/ISO/AVC
Duration : 1h 32mn
Bit rate : 5 300 Kbps
Width : 1 024 pixels
Height : 576 pixels
Display aspect ratio : 16:9
Frame rate : 59.940 fps
Color space : YUV
Chroma subsampling : 4:2:0
Bit depth : 8 bits
Scan type : Progressive
Bits/(Pixel*Frame) : 0.150
Stream size : 3.35 GiB (87%)
Title : Tiberiumsun69
Writing library : x264 core 146 r2538 121396c
Encoding settings : cabac=1 / ref=4 / deblock=1:0:0 / analyse=0x3:0x113 / me=umh / subme=9 / psy=1 / psy_rd=1.00:0.10 / mixed_ref=1 / me_range=32 / chroma_me=1 / trellis=2 / 8x8dct=1 / cqm=0 / deadzone=21,11 / fast_pskip=0 / chroma_qp_offset=-3 / threads=12 / lookahead_threads=3 / sliced_threads=0 / nr=0 / decimate=1 / interlaced=0 / bluray_compat=0 / constrained_intra=0 / bframes=16 / b_pyramid=2 / b_adapt=2 / b_bias=0 / direct=3 / weightb=1 / open_gop=0 / weightp=2 / keyint=600 / keyint_min=59 / scenecut=40 / intra_refresh=0 / rc_lookahead=60 / rc=2pass / mbtree=1 / bitrate=5300 / ratetol=1.0 / qcomp=0.60 / qpmin=0 / qpmax=69 / qpstep=4 / cplxblur=20.0 / qblur=0.5 / vbv_maxrate=50000 / vbv_bufsize=62500 / nal_hrd=none / filler=0 / ip_ratio=1.40 / aq=1:1.00
Language : English
Default : Yes
Forced : No
Audio
ID : 2
Format : AC-3
Format/Info : Audio Coding 3
Mode extension : CM (complete main)
Codec ID : A_AC3
Duration : 1h 32mn
Bit rate mode : Constant
Bit rate : 640 Kbps
Channel(s) : 6 channels
Channel positions : Front: L C R, Side: L R, LFE
Sampling rate : 48.0 KHz
Bit depth : 16 bits
Compression mode : Lossy
Stream size : 424 MiB (11%)
Title : Дубляж
Language : Russian
Default : No
Forced : No
Text #1
ID : 3
Format : UTF-8
Codec ID : S_TEXT/UTF8
Codec ID/Info : UTF-8 Plain Text
Title : Форсированные
Language : Russian
Default : Yes
Forced : No
Text #2
ID : 4
Format : UTF-8
Codec ID : S_TEXT/UTF8
Codec ID/Info : UTF-8 Plain Text
Title : Полные
Language : Russian
Default : No
Forced : No
Text #3
ID : 5
Format : UTF-8
Codec ID : S_TEXT/UTF8
Codec ID/Info : UTF-8 Plain Text
Title : Полные
Language : English
Default : No
Forced : No
Menu
00:00:00.000 : en:00:00:00.000
00:03:40.387 : en:00:03:40.387
00:06:22.173 : en:00:06:22.173
00:12:29.999 : en:00:12:29.999
00:18:21.600 : en:00:18:21.600
00:22:52.079 : en:00:22:52.079
00:30:14.688 : en:00:30:14.688
00:35:37.886 : en:00:35:37.886
00:39:50.972 : en:00:39:50.972
00:43:13.424 : en:00:43:13.424
00:50:54.510 : en:00:50:54.510
00:55:16.396 : en:00:55:16.396
01:00:03.099 : en:01:00:03.099
01:04:19.355 : en:01:04:19.355
01:10:16.587 : en:01:10:16.587
01:16:20.367 : en:01:16:20.367
01:20:29.491 : en:01:20:29.491
01:23:30.839 : en:01:23:30.839


Просьба к переливающим на другие сайты, в оформлении указывайте пожалуйста авторство группы



   Похожие торренты   Торрент   Размер 
В этой теме нет новых непрочитанных сообщений. Губка Боб в 3D / The SpongeBob Movie: Sponge Out of Water (2015) BDRip-AVC от NNNB

439 | 57

2.05 ГБ

В этой теме нет новых непрочитанных сообщений. Губка Боб в 3D / The SpongeBob Movie: Sponge Out of Water (2015) BDRip 1080p | Лицензия

545 | 37

7.76 ГБ

В этой теме нет новых непрочитанных сообщений. Губка Боб в 3D / The SpongeBob Movie: Sponge Out of Water (2015) BDRip от HQCLUB | Лицензия

3073 | 113

1.45 ГБ

В этой теме нет новых непрочитанных сообщений. Губка Боб в 3D / The SpongeBob Movie: Sponge Out of Water (2015) BDRip 1080p | iTunes

1087 | 49

4.62 ГБ

В этой теме нет новых непрочитанных сообщений. Губка Боб в 3D / The SpongeBob Movie: Sponge Out of Water (2015) TS

15499 | 50712

1.37 ГБ

В этой теме нет новых непрочитанных сообщений. Губка Боб в 3D / The SpongeBob Movie: Sponge Out of Water (2015) BDRip 720p от KinoGadget | iPad

230 | 4

1.39 ГБ

В этой теме нет новых непрочитанных сообщений. Губка Боб в 3D / The SpongeBob Movie: Sponge Out of Water (2015) BDRip 720p от HELLYWOOD | Лицензия

413 | 60

4.37 ГБ




Вы не можете начинать темы
Вы не можете отвечать на сообщения
Вы не можете редактировать свои сообщения
Вы не можете удалять свои сообщения
Вы не можете добавлять вложения

Перейти:  
Для Мосгорсуда, Роскомнадзора и рекламодателей: mosgorsud-torrent[собачка]yandex.ru
 Вход
ppkBB3cker v.2 © 2008-2014 @ PPK
[ Time : 0.539s | 15 Queries | GZIP : Off ]

Торрент трекер RUTOR.IN, Не можете зайти на rutor.org? Какой новый адрес рутор? Какое зеркало рутор? Не работает rutor.org и зеркала? Тогда наш торрент специально для вас. Rutor.in неофициальное зеркало rutor. В случае если у Вас заблокирован rutor или вдруг Вы не можете на него зайти, то Вы без труда сможете скачать бесплатно и без рекламы последние новинки кино, игр, сериалов и прочего у нас, на Rutor.in. Не нужно использовать прокси, чтобы зайти на рутор, достаточно воспользоваться нашим ресурсом. Все новые фильмы, игры, сериалы, книги и музыка за 2013 и 2014 годы через торрент бесплатно. Скачивайте фильмы в хорошем качестве, игры для пк, xbox, playstation без регистрации. У нас вы найдете новые Зарубежные сериалы и Русские сериалы 2013, 2014, 2015 годов. Оставайтесь с нами, качайте любимые фильмы, игры, сериалы, книги и музыку.
cron