img image001 image001 image001 image001 image001 image001 image001 image001 image001 image001 image001 image001 image001 image001 image001

Planets Sun Sun Sun
Статистика раздачи
Автор: Nickolas3434 | Размер: 743.88 МБ | Добавлен: 26 июн 2015
Раздают: 278    Качают: 15
Скачать торрент
Скачать торрент
Описание торрента

СообщениеДобавлено: 26 июн 2015 

Страна: СССР
Производство: Союзмультфильм
Жанр: мультфильм, фэнтези, семейный
Год выпуска: 1947
Продолжительность: 00:55:06
Перевод: Не требуется
Cубтитры: нет
Оригинальная аудиодорожка: русский
Режиссер: Иван Иванов-Вано, Александра Снежко-Блоцкая, Виктор Громов
Роли озвучивали:
Ю. Черноволенко, Галина Новожилова, Анатолий Кубацкий, Алик Качанов, Георгий Милляр, Валентина Сперантова, Леонид Пирогов, В. Ястребова...
Описание:
Жил-был в Царь-столице грозный царь. Задумал он взять в жены Царь-девицу и послал за нею Иванушку, крестьянского сына. Вовек бы тому не добраться до красавицы, если б не волшебный помощник, сказочный Конек-Горбунок…





Источник: DVD5 R5
Качество видео: DVDRip
Формат видео: AVI
Видео: 720x544 (4:3), 25 fps, XviD ~ 1686 kbps avg, 0.172 bit/pixel
Аудио: 48 kHz, Dolby Digital AC3 2.0, 192 kbps
Раздача от:
"3а горами, за лесами, за широкими морями..." — так начинается известная сказка "Конёк-Горбунок". Это — как заклинание, как пропуск в сокровищницу. Изумительное творение совершенно затмило автора, и сегодня далеко не каждый знает, что Пётр Павлович Ершов (1815–1869) был родом из Сибири, учился в Петербургском университете и «Горбунка» (1834) написал, будучи студентом. «Конёк-Горбунок» — произведение народное, почти слово в слово, по сообщению самого автора, взятое из уст рассказчиков, от которых он его слышал; Ершов только привёл его в более стройный вид и местами дополнил.
Мультипликационная версия создана старейшим российским режиссёром, народным артистом СССР Иваном Петровичем Ивановым-Вано в послевоенном 1947 году. С тех пор прошло более полувека. Но и сегодня этот первый российский полнометражный мультипликационный фильм покоряет зрителей неподдельной искренностью, юмором, оптимизмом. Увлекательно и задорно, красочно и непосредственно повествование об удивительных приключениях Иванушки-дурачка и его верного друга — волшебного Конька, перехитривших глупого и алчного царя.
Сразу же после появления на свет киносказка заняла особое место в истории отечественного и зарубежного кинематографа. Фильм был удостоен международных призов и наград:
III МКФ в Марианских Лазнях (ЧССР), 1948 — Почётный диплом;
IV МКФ в Каннах, 1950 — Специальная премия Жюри.

Общее
Полное имя : Konek-Gorbunok.1947.DVDRip_[New-team]_by_AVP_Studio.avi
Формат : AVI
Формат/Информация : Audio Video Interleave
Размер файла : 744 Мбайт
Продолжительность : 55 м.
Общий поток : 1888 Кбит/сек
Программа кодирования : VirtualDubModRus 1.5.10.2 (build 2542/release)
Библиотека кодирования : VirtualDubMod build 2542/release
Видео
Идентификатор : 0
Формат : MPEG-4 Visual
Профиль формата : Advanced Simple@L5
Параметр BVOP формата : 1
Параметр QPel формата : Нет
Параметр GMC формата : Без точки перехода
Параметр матрицы формата : Выборочная
Идентификатор кодека : XVID
Идентификатор кодека/Подсказка : XviD
Продолжительность : 55 м.
Битрейт : 1686 Кбит/сек
Ширина : 720 пикселей
Высота : 544 пикселя
Соотношение сторон : 4:3
Частота кадров : 25,000 кадров/сек
Цветовое пространство : YUV
Субдискретизация насыщенности : 4:2:0
Битовая глубина : 8 бит
Тип развёртки : Прогрессивная
Метод сжатия : С потерями
Бит/(Пиксели*Кадры) : 0.172
Размер потока : 664 Мбайт (89%)
Библиотека кодирования : XviD 73
Аудио
Идентификатор : 1
Формат : AC-3
Формат/Информация : Audio Coding 3
Расширение режима : CM (complete main)
Параметр Endianness формата : Big
Идентификатор кодека : 2000
Продолжительность : 55 м.
Вид битрейта : Постоянный
Битрейт : 192 Кбит/сек
Каналы : 2 канала
Расположение каналов : Front: L R
Частота : 48,0 КГц
Битовая глубина : 16 бит
Метод сжатия : С потерями
Размер потока : 75,7 Мбайт (10%)
Выравнивание : Разделение по промежуткам
Продолжительность промежутка : 40 мс. (1,00 видеокадр)
Время предзагрузки промежутка : 500 мс





   Похожие торренты   Торрент   Размер 
В этой теме нет новых непрочитанных сообщений. Конек-Горбунок (1947) DVDRip-AVC от New-Team

327 | 79

744.84 МБ

В этой теме нет новых непрочитанных сообщений. Конёк-Горбунок (1947) DVDRip | Реставрация

247 | 24

1.1 ГБ

В этой теме нет новых непрочитанных сообщений. Конёк-Горбунок (1947) DVD5 | Реставрация

22 | 8

2.85 ГБ

В этой теме нет новых непрочитанных сообщений. Конёк-горбунок (1941) DVDRip-AVC от New-Team

118 | 11

1.09 ГБ

В этой теме нет новых непрочитанных сообщений. Конёк-горбунок (1941) DVDRip от New-Team

19 | 5

743.59 МБ

В этой теме нет новых непрочитанных сообщений. Конёк-горбунок (1941) SATRip от New-Team

14 | 3

1.09 ГБ

В этой теме нет новых непрочитанных сообщений. Конёк-Горбунок [01-03 из 03] (1973) DVDRip-AVC

0 | 6

551.99 МБ




Вы не можете начинать темы
Вы не можете отвечать на сообщения
Вы не можете редактировать свои сообщения
Вы не можете удалять свои сообщения
Вы не можете добавлять вложения

Перейти:  
Для Мосгорсуда, Роскомнадзора и рекламодателей: mosgorsud-torrent[собачка]yandex.ru
 Вход
ppkBB3cker v.2 © 2008-2014 @ PPK
[ Time : 0.047s | 15 Queries | GZIP : Off ]

Торрент трекер RUTOR.IN, Не можете зайти на rutor.org? Какой новый адрес рутор? Какое зеркало рутор? Не работает rutor.org и зеркала? Тогда наш торрент специально для вас. Rutor.in неофициальное зеркало rutor. В случае если у Вас заблокирован rutor или вдруг Вы не можете на него зайти, то Вы без труда сможете скачать бесплатно и без рекламы последние новинки кино, игр, сериалов и прочего у нас, на Rutor.in. Не нужно использовать прокси, чтобы зайти на рутор, достаточно воспользоваться нашим ресурсом. Все новые фильмы, игры, сериалы, книги и музыка за 2013 и 2014 годы через торрент бесплатно. Скачивайте фильмы в хорошем качестве, игры для пк, xbox, playstation без регистрации. У нас вы найдете новые Зарубежные сериалы и Русские сериалы 2013, 2014, 2015 годов. Оставайтесь с нами, качайте любимые фильмы, игры, сериалы, книги и музыку.