img image001 image001 image001 image001 image001 image001 image001 image001 image001 image001 image001 image001 image001 image001 image001

Planets Sun Sun Sun
Статистика раздачи
Автор: Nickolas3434 | Размер: 3.09 ГБ | Добавлен: 28 июн 2015
Раздают: 150    Качают: 16
Скачать торрент
Скачать торрент
Описание торрента

СообщениеДобавлено: 28 июн 2015 



Название: Книга жизни
Оригинальное название: The Book of Life
Год выпуска: 2014
Страна: США
Жанр: мультфильм, фэнтези, мелодрама, комедия, приключения, семейный
Продолжительность: 01:35:24
Перевод: Дубляж
Субтитры: русские (Форсированные), русские (Полные), английские (Полные)

Режиссер: Хорхе Р. Гутьеррес / Jorge R. Gutiérrez

В ролях: Диего Луна (Manolo, озвучка), Зои Салдана (Maria, озвучка), Ченнинг Татум (Joaquin, озвучка), Рон Перлман (Xibalba, озвучка), Кристина Эпплгейт (Mary Beth, озвучка), Айс Кьюб (Candle Maker, озвучка), Кейт дель Кастильо (La Muerte, озвучка), Гектор Элизондо (Carlos Sanchez, озвучка), Дэнни Трехо (Skeleton Luis, озвучка), Карлос Аласраки (General Posada / Dali / Chuy, озвучка), Ана де ла Регера (Skeleton Carmen, озвучка), Эмиль-Бастьен Боффар (Young Manolo, озвучка)


Описание:
В мультфильме описывается романтическая история любви на фоне празднования Дня мертвых в Мексике.


Рейтинг

imdb.com: 7.30 (29 923)
MPAA: PG - Рекомендуется присутствие родителей


Качество: BDRip-AVC 60fps
Формат: MKV
Видео кодек: AVC
Аудио кодек:AC3
Видео: AVC, 1024x424 (2.40:1), 4000 kbps, 59,940 fps, 0,154 bpp
Аудио: русский / AC3 / 5.1 / 48 kHz / 640 kbps / 16 bit |Дубляж|
Навигация по главам: есть



General
Unique ID : 247521641986443474874701439204095454543 (0xBA36EF28F28D8703948286147A4C6D4F)
Format : Matroska
Format version : Version 4 / Version 2
File size : 3.09 GiB
Duration : 1h 35mn
Overall bit rate : 4 640 Kbps
Movie name : Tiberiumsun69
Encoded date : UTC 2015-06-27 07:34:54
Writing application : mkvmerge v7.9.0 ('Birds') 64bit
Writing library : libebml v1.3.1 + libmatroska v1.4.2
Attachment : Yes / Yes
Video
ID : 1
Format : AVC
Format/Info : Advanced Video Codec
Format profile : High@L4.1
Format settings, CABAC : Yes
Format settings, ReFrames : 4 frames
Codec ID : V_MPEG4/ISO/AVC
Duration : 1h 35mn
Bit rate : 4 000 Kbps
Width : 1 024 pixels
Height : 424 pixels
Display aspect ratio : 2.40:1
Frame rate : 59.940 fps
Color space : YUV
Chroma subsampling : 4:2:0
Bit depth : 8 bits
Scan type : Progressive
Bits/(Pixel*Frame) : 0.154
Stream size : 2.60 GiB (84%)
Title : Tiberiumsun69
Writing library : x264 core 146 r2538 121396c
Encoding settings : cabac=1 / ref=4 / deblock=1:0:0 / analyse=0x3:0x113 / me=umh / subme=9 / psy=1 / psy_rd=1.00:0.10 / mixed_ref=1 / me_range=32 / chroma_me=1 / trellis=2 / 8x8dct=1 / cqm=0 / deadzone=21,11 / fast_pskip=0 / chroma_qp_offset=-3 / threads=12 / lookahead_threads=3 / sliced_threads=0 / nr=0 / decimate=1 / interlaced=0 / bluray_compat=0 / constrained_intra=0 / bframes=16 / b_pyramid=2 / b_adapt=2 / b_bias=0 / direct=3 / weightb=1 / open_gop=0 / weightp=2 / keyint=600 / keyint_min=59 / scenecut=40 / intra_refresh=0 / rc_lookahead=60 / rc=2pass / mbtree=1 / bitrate=4000 / ratetol=1.0 / qcomp=0.60 / qpmin=0 / qpmax=69 / qpstep=4 / cplxblur=20.0 / qblur=0.5 / vbv_maxrate=50000 / vbv_bufsize=62500 / nal_hrd=none / filler=0 / ip_ratio=1.40 / aq=1:1.00
Language : English
Default : Yes
Forced : No
Audio
ID : 2
Format : AC-3
Format/Info : Audio Coding 3
Mode extension : CM (complete main)
Codec ID : A_AC3
Duration : 1h 35mn
Bit rate mode : Constant
Bit rate : 640 Kbps
Channel(s) : 6 channels
Channel positions : Front: L C R, Side: L R, LFE
Sampling rate : 48.0 KHz
Bit depth : 16 bits
Compression mode : Lossy
Stream size : 437 MiB (14%)
Title : Дубляж
Language : Russian
Default : No
Forced : No
Text #1
ID : 3
Format : UTF-8
Codec ID : S_TEXT/UTF8
Codec ID/Info : UTF-8 Plain Text
Title : Форсированные
Language : Russian
Default : Yes
Forced : No
Text #2
ID : 4
Format : UTF-8
Codec ID : S_TEXT/UTF8
Codec ID/Info : UTF-8 Plain Text
Title : Полные
Language : Russian
Default : No
Forced : No
Text #3
ID : 5
Format : UTF-8
Codec ID : S_TEXT/UTF8
Codec ID/Info : UTF-8 Plain Text
Title : Полные
Language : English
Default : No
Forced : No
Menu
00:00:00.000 : en:00:00:00.000
00:02:58.053 : en:00:02:58.053
00:05:39.631 : en:00:05:39.631
00:08:35.014 : en:00:08:35.014
00:12:08.478 : en:00:12:08.478
00:15:07.698 : en:00:15:07.698
00:19:24.246 : en:00:19:24.246
00:22:20.089 : en:00:22:20.089
00:26:08.150 : en:00:26:08.150
00:28:59.571 : en:00:28:59.571
00:33:02.147 : en:00:33:02.147
00:37:25.952 : en:00:37:25.952
00:41:07.090 : en:00:41:07.090
00:43:14.634 : en:00:43:14.634
00:47:02.486 : en:00:47:02.486
00:50:53.050 : en:00:50:53.050
00:53:13.232 : en:00:53:13.232
00:56:30.220 : en:00:56:30.220
01:00:16.279 : en:01:00:16.279
01:03:57.792 : en:01:03:57.792
01:06:48.379 : en:01:06:48.379
01:09:09.896 : en:01:09:09.896
01:11:52.016 : en:01:11:52.016
01:15:53.215 : en:01:15:53.215
01:18:52.770 : en:01:18:52.770
01:21:13.410 : en:01:21:13.410
01:23:33.842 : en:01:23:33.842
01:27:11.893 : en:01:27:11.893


Просьба к переливающим на другие сайты, в оформлении указывайте пожалуйста авторство группы



   Похожие торренты   Торрент   Размер 
В этой теме нет новых непрочитанных сообщений. Книга жизни / The Book of Life (2014) BDRip от New-Team | D

56 | 9

2.33 ГБ

В этой теме нет новых непрочитанных сообщений. Книга жизни / The Book of Life (2014) BDRip 1080p

116 | 7

7.76 ГБ

В этой теме нет новых непрочитанных сообщений. Книга жизни / The Book of Life (2014) BDRip-AVC от MediaClub | L

612 | 92

2.18 ГБ

В этой теме нет новых непрочитанных сообщений. Книга жизни / The Book of Life (2014) BDRip 720 от SuperMin

66 | 8

2.75 ГБ

В этой теме нет новых непрочитанных сообщений. Книга жизни / The Book of Life (2014) BDRip 720p | L

850 | 99

4.54 ГБ

В этой теме нет новых непрочитанных сообщений. Книга жизни / The Book of Life (2014) BDRip от HQCLUB | D | Лицензия

183 | 14

1.45 ГБ

В этой теме нет новых непрочитанных сообщений. Книга жизни / The Book of Life (2014) BDRip от Deadmauvlad | D | Лицензия

387 | 19

2.05 ГБ




Вы не можете начинать темы
Вы не можете отвечать на сообщения
Вы не можете редактировать свои сообщения
Вы не можете удалять свои сообщения
Вы не можете добавлять вложения

Перейти:  
Для Мосгорсуда, Роскомнадзора и рекламодателей: mosgorsud-torrent[собачка]yandex.ru
 Вход
ppkBB3cker v.2 © 2008-2014 @ PPK
[ Time : 0.024s | 14 Queries | GZIP : Off ]

Торрент трекер RUTOR.IN, Не можете зайти на rutor.org? Какой новый адрес рутор? Какое зеркало рутор? Не работает rutor.org и зеркала? Тогда наш торрент специально для вас. Rutor.in неофициальное зеркало rutor. В случае если у Вас заблокирован rutor или вдруг Вы не можете на него зайти, то Вы без труда сможете скачать бесплатно и без рекламы последние новинки кино, игр, сериалов и прочего у нас, на Rutor.in. Не нужно использовать прокси, чтобы зайти на рутор, достаточно воспользоваться нашим ресурсом. Все новые фильмы, игры, сериалы, книги и музыка за 2013 и 2014 годы через торрент бесплатно. Скачивайте фильмы в хорошем качестве, игры для пк, xbox, playstation без регистрации. У нас вы найдете новые Зарубежные сериалы и Русские сериалы 2013, 2014, 2015 годов. Оставайтесь с нами, качайте любимые фильмы, игры, сериалы, книги и музыку.