img image001 image001 image001 image001 image001 image001 image001 image001 image001 image001 image001 image001 image001 image001 image001 image001

Planets Sun Sun Sun
Статистика раздачи
Автор: Nickolas3434 | Размер: 4.36 ГБ | Добавлен: 28 июн 2015
Раздают: 85    Качают: 16
Скачать торрент
Скачать торрент
Описание торрента

СообщениеДобавлено: 28 июн 2015 


Информация о фильме
Название: Феи: Загадка пиратского острова
Оригинальное название: The Pirate Fairy
Год выхода: 2014
Жанр: мультфильм, фэнтези, детский, приключения
Режиссер: Пегги Холмс / Peggy Holmes
В ролях: Кристина Хендрикс, Мэй Уитман, Том Хиддлстон, Памела Адлон, Анджела Бартис, Меган Хилти, Люси Лью, Рэйвен, Джим Каммингс, Кевин Майкл Ричардсон
О фильме:
История о Зарине, смышленой и амбициозной фее, собирающей пыльцу растений. Все начинается с того, что она похищает волшебную пыльцу фей…

Страна: США
Продолжительность: 01:18:05
Перевод: Профессиональный (полное дублирование)
Файл
Кодек: h264
Качество: BDRip 1080 от SuperMin
Видео: 1920х1080 (16:9), 7375 Kbps, 23.976 fps
Звук: Русский (AC-3, 6ch, 640 kbps)
x264 [info]: frame I:1186 Avg QP:13.43 size:363900
x264 [info]: frame P:33706 Avg QP:18.12 size: 63445
x264 [info]: frame B:77443 Avg QP:22.51 size: 22411
x264 [info]: consecutive B-frames: 5.5% 8.2% 24.0% 31.7% 15.1% 13.0% 1.2% 0.8% 0.6%
[27.06.2015 19:11:04] encoded 112335 frames, 1.91 fps, 7351.77 kb/s

Video
ID : 1
Format : AVC
Format/Info : Advanced Video Codec
Format profile : High@L4.1
Format settings, CABAC : Yes
Format settings, ReFrames : 4 frames
Codec ID : V_MPEG4/ISO/AVC
Duration : 1h 18mn
Bit rate : 7 375 Kbps
Width : 1 920 pixels
Height : 1 080 pixels
Display aspect ratio : 16:9
Frame rate mode : Constant
Frame rate : 23.976 fps
Color space : YUV
Chroma subsampling : 4:2:0
Bit depth : 8 bits
Scan type : Progressive
Bits/(Pixel*Frame) : 0.148
Stream size : 3.92 GiB (90%)
Writing library : x264 core 146 r2538 121396c
Encoding settings : cabac=1 / ref=4 / deblock=1:0:0 / analyse=0x3:0x113 / me=umh / subme=10 / psy=1 / psy_rd=1.00:0.00 / mixed_ref=1 / me_range=32 / chroma_me=1 / trellis=2 / 8x8dct=1 / cqm=0 / deadzone=21,11 / fast_pskip=0 / chroma_qp_offset=-2 / threads=3 / lookahead_threads=1 / sliced_threads=0 / nr=0 / decimate=1 / interlaced=0 / bluray_compat=0 / constrained_intra=0 / bframes=8 / b_pyramid=2 / b_adapt=2 / b_bias=0 / direct=1 / weightb=1 / open_gop=0 / weightp=2 / keyint=230 / keyint_min=22 / scenecut=40 / intra_refresh=0 / rc_lookahead=40 / rc=2pass / mbtree=1 / bitrate=7375 / ratetol=1.0 / qcomp=0.60 / qpmin=0 / qpmax=69 / qpstep=4 / cplxblur=20.0 / qblur=0.5 / vbv_maxrate=62500 / vbv_bufsize=78125 / nal_hrd=none / filler=0 / ip_ratio=1.40 / aq=1:0.80
Default : Yes
Forced : No
Audio
ID : 2
Format : AC-3
Format/Info : Audio Coding 3
Mode extension : CM (complete main)
Format settings, Endianness : Big
Codec ID : A_AC3
Duration : 1h 18mn
Bit rate mode : Constant
Bit rate : 640 Kbps
Channel count : 6 channels
Channel positions : Front: L C R, Side: L R, LFE
Sampling rate : 48.0 KHz
Bit depth : 16 bits
Compression mode : Lossy
Stream size : 357 MiB (8%)
Language : Russian
Default : Yes
Forced : No


Релиз от: SuperMin



   Похожие торренты   Торрент   Размер 
В этой теме нет новых непрочитанных сообщений. Феи: Загадка пиратского острова / The Pirate Fairy (2014) BDRip 720p | Sub

16 | 1479

2.64 ГБ

В этой теме нет новых непрочитанных сообщений. Феи: Загадка пиратского острова / The Pirate Fairy (2014) BDRip 1080p

302 | 28

5.77 ГБ

В этой теме нет новых непрочитанных сообщений. Феи: Загадка пиратского острова / The Pirate Fairy (2014) BDRip-AVC от ExKinoRay | Лицензия

439 | 18

2.18 ГБ

В этой теме нет новых непрочитанных сообщений. Феи: Загадка пиратского острова / The Pirate Fairy (2014) BDRip от HQCLUB | Лицензия

747 | 42

1.45 ГБ

В этой теме нет новых непрочитанных сообщений. Феи: Загадка пиратского острова / The Pirate Fairy (2014) BDRip 720p от HDCLUB

24 | 3

4.55 ГБ

В этой теме нет новых непрочитанных сообщений. Феи: Загадка пиратского острова / The Pirate Fairy (2014) BDRip 1080p | iTunes

166 | 31

5.4 ГБ

В этой теме нет новых непрочитанных сообщений. Феи: Загадка пиратского острова / The Pirate Fairy (2014) BDRip-AVC от ExKinoRay | iTunes

77 | 18

2.14 ГБ




Вы не можете начинать темы
Вы не можете отвечать на сообщения
Вы не можете редактировать свои сообщения
Вы не можете удалять свои сообщения
Вы не можете добавлять вложения

Перейти:  
 Вход
ppkBB3cker v.2 © 2008-2014 @ PPK
[ Time : 0.022s | 15 Queries | GZIP : Off ]

cron