img image001 image001 image001 image001 image001 image001 image001 image001 image001 image001 image001 image001 image001 image001 image001

Planets Sun Sun Sun
Статистика раздачи
Автор: Nickolas3434 | Размер: 3.4 ГБ | Добавлен: 03 июл 2015, 06:13
Раздают: 141    Качают: 41
Скачать торрент
Скачать торрент
Описание торрента

СообщениеДобавлено: 03 июл 2015, 06:13 

Информация о фильме:
● Название: Удивительные Люди Икс: Одаренные
● Оригинальное название: Astonishing X-Men: Gifted
● Год выхода: 2009
● Жанр: мультфильм, фантастика, боевик
● Режиссер: Джон Кэссадэй
● В ролях: Михаль Фридман, Ева Кристенсен, Эйлин Стивенс, Дэн Грин, Эрика Шредер, Майк Поллок, Грегори Аббей, Марк Томпсон

Описание фильма:
Люди Икс собираются в своем звездном составе: Циклоп, Эмма Фрост, Росомаха, Призрачная Кошка и Зверь. Их цель — возродить Институт Хавьера и воспитать поколение новых мутантов. Инопланетный воин Орд несет с собой хаос и разрушения, индийский доктор Кавита Рао создает невероятное лекарство от мутации, и жизнь всех одаренных под угрозой. Кто-то жаждет исцелится, кто-то злится от одной мысли о сыворотке, но всем вместе им придется дать отпор коварному Орду, позабыв о собственных глубоких переживаниях и боли и объединив усилия. Ведь они — Удивительные Люди-Икс.

● Страна: США
● Студия: Marvel Knights
● Продолжительность: 01:19:34 - 6 серий
● Перевод: дублированный
Невафильм
Информация о файле:
● Кодек: MPEG-2
● Формат: MKV
● Качество: DVD
● Видео: ~ 5813 kbps, 720x576@1024x576, 25 fps
● Аудио#1 Rus: AC3, 48 kHz, 2 ch, 192 kbps
● Аудио#2 Eng: AC3, 48 kHz, 2 ch, 224 kbps

Релиз от:
За дубляж отдельное спасибо Bobropandavar
Общее
Уникальный идентификатор: 249302959274356348377385143783964709459 (0xBB8E00E20A04989794DA2E4D366E9253)
Полное имя: D:MR_eng_seriesAstonishing X-Men_Gifted. s01. DVD-Remux (1024x576)Gifted. Chapter 1.mkv
Формат: Matroska
Версия формата: Version 4 / Version 2
Размер файла: 594 Мбайт
Продолжительность: 13 м.
Режим общего битрейта: Переменный
Общий поток: 6355 Кбит/сек
Название фильма: Astonishing X-Men: Gifted. Chapter 1. SHAgroup-SHAmonstra
Дата кодирования: UTC 2015-07-01 18:26:36
Программа кодирования: mkvmerge v6.9.1 ('Blue Panther') 64bit built on Apr 18 2014 18:23:38
Библиотека кодирования: libebml v1.3.0 + libmatroska v1.4.1
Видео
Идентификатор: 1
Формат: MPEG Video
Версия формата: Version 2
Профиль формата: Main@Main
Параметр BVOP формата: Да
Параметр матрицы формата: Выборочная
Параметр GOP формата: M=3, N=12
Format_Settings_PictureStructure: Frame
Идентификатор кодека: V_MPEG2
Идентификатор кодека/Информация: MPEG 1 or 2 Video
Продолжительность: 13 м.
Вид битрейта: Переменный
Битрейт: 5813 Кбит/сек
Максимальный битрейт: 7500 Кбит/сек
Ширина: 720 пикселей
Высота: 576 пикселей
Соотношение сторон: 16:9
Режим частоты кадров: Постоянный
Частота кадров: 25,000 кадров/сек
Стандарт вещания: PAL
Цветовое пространство: YUV
Субдискретизация насыщенности: 4:2:0
Битовая глубина: 8 бит
Тип развёртки: Чересстрочная
Порядок развёртки: Верхнее поле первое
Метод сжатия: С потерями
Бит/(Пиксели*Кадры): 0.561
Временной код первого кадра: 00:59:53:00
Оригинал временного кода: Group of pictures header
Размер потока: 543 Мбайт (91%)
Язык: English
Default: Да
Forced: Нет
Основные цвета: BT.601 PAL
Характеристики трансфера: BT.470 System B, BT.470 System G
Коэффициенты матрицы: BT.601
Аудио #1
Идентификатор: 2
Формат: AC-3
Формат/Информация: Audio Coding 3
Расширение режима: CM (complete main)
Параметр Endianness формата: Big
Идентификатор кодека: A_AC3
Продолжительность: 13 м.
Вид битрейта: Постоянный
Битрейт: 192 Кбит/сек
Каналы: 2 канала
Расположение каналов: Front: L R
Частота: 48,0 КГц
Битовая глубина: 16 бит
Метод сжатия: С потерями
Размер потока: 17,9 Мбайт (3%)
Язык: Russian
Default: Да
Forced: Нет
Аудио #2
Идентификатор: 3
Формат: AC-3
Формат/Информация: Audio Coding 3
Расширение режима: CM (complete main)
Параметр Endianness формата: Big
Идентификатор кодека: A_AC3
Продолжительность: 13 м.
Вид битрейта: Постоянный
Битрейт: 224 Кбит/сек
Каналы: 2 канала
Расположение каналов: Front: L R
Частота: 48,0 КГц
Битовая глубина: 16 бит
Метод сжатия: С потерями
Размер потока: 20,9 Мбайт (4%)
Язык: English
Default: Нет
Forced: Нет



   Похожие торренты   Торрент   Размер 
В этой теме нет новых непрочитанных сообщений. Удивительные Люди Икс: Одаренные / Astonishing X-Men: Gifted [s01] (2009) DVDRip | D

44 | 6

1.01 ГБ

В этой теме нет новых непрочитанных сообщений. Удивительные Люди-Икс: Одаренные / Astonishing X-Men: Gifted (Motion Comic) [S01] (2009) DVDRip

9 | 2

616.3 МБ

В этой теме нет новых непрочитанных сообщений. Рыцари Марвел. Росомаха против Саблезубого / Marvel Knights. Wolverine Vs. Sabretooth [01-06 из 06] (2014) SATRip от ExKinoRay | D

89 | 4

876.56 МБ

В этой теме нет новых непрочитанных сообщений. Удивительные Люди Икс: Опасные / Astonishing X-Men: Dangerous [s01] (2012) DVD-Remux | D

80 | 25

2.98 ГБ

В этой теме нет новых непрочитанных сообщений. Удивительные Люди Икс: Битые / Astonishing X-Men: Torn [s01] (2012) DVD-Remux | D

30 | 19

2.64 ГБ

В этой теме нет новых непрочитанных сообщений. Удивительные Люди Икс: Неудержимые / Astonishing X-Men: Unstoppable [01x01-06 из 8] (2012) DVD-Remux | D

45 | 17

3.08 ГБ

В этой теме нет новых непрочитанных сообщений. Удивительные Люди Икс: Опасные / Astonishing X-Men: Dangerous [s01] (2012) DVDRip | D

39 | 6

881.15 МБ




Вы не можете начинать темы
Вы не можете отвечать на сообщения
Вы не можете редактировать свои сообщения
Вы не можете удалять свои сообщения
Вы не можете добавлять вложения

Перейти:  
Для Мосгорсуда, Роскомнадзора и рекламодателей: mosgorsud-torrent[собачка]yandex.ru
Настройки
ppkBB3cker v.2 © 2008-2014 @ PPK
[ Time : 0.012s | 15 Queries | GZIP : Off ]
CGP [Extreme] output time : 0.00021s | 0 Queries | GZIP : Off

Торрент трекер RUTOR.IN, Не можете зайти на rutor.org? Какой новый адрес рутор? Какое зеркало рутор? Не работает rutor.org и зеркала? Тогда наш торрент специально для вас. Rutor.in неофициальное зеркало rutor. В случае если у Вас заблокирован rutor или вдруг Вы не можете на него зайти, то Вы без труда сможете скачать бесплатно и без рекламы последние новинки кино, игр, сериалов и прочего у нас, на Rutor.in. Не нужно использовать прокси, чтобы зайти на рутор, достаточно воспользоваться нашим ресурсом. Все новые фильмы, игры, сериалы, книги и музыка за 2013 и 2014 годы через торрент бесплатно. Скачивайте фильмы в хорошем качестве, игры для пк, xbox, playstation без регистрации. У нас вы найдете новые Зарубежные сериалы и Русские сериалы 2013, 2014, 2015 годов. Оставайтесь с нами, качайте любимые фильмы, игры, сериалы, книги и музыку.