img image001 image001 image001 image001 image001 image001 image001 image001 image001 image001 image001 image001 image001 image001 image001

Planets Sun Sun Sun
Статистика раздачи
Автор: Nickolas3434 | Размер: 1.37 ГБ | Добавлен: 06 июл 2015
Раздают: 718    Качают: 16
Скачать торрент
Скачать торрент
Описание торрента

СообщениеДобавлено: 06 июл 2015 

Информация о фильме
Название: Дом
Оригинальное название: Home
Год выхода: 2015
Жанр: мультфильм, фантастика, фэнтези, комедия, приключения, семейный
Режиссер: Тим Джонсон
В ролях: Джим Парсонс, Рианна, Стив Мартин, Дженнифер Лопез, Мэтт Джонс, Брайан Степанек, Эйприл Стрюбинг, Стивен Кеарин, Лиза Стюарт, Эйприл Уинчелл
О фильме:
Захватив Землю, раса пришельцев Був тут же начинает заниматься её благоустройством и реорганизацией. «Не стоит благодарности!» — заявляют они землянам, собранным на время в отдельных резервациях. Находчивая и рисковая девочка по имени Дар, чудом сбежавшая от пришельцев, встречает на своем пути самого раздражающе-оптимистичного Бува по имени О, отвергнутого своими инопланетными собратьями. Этой, казалось бы, несовместимой парочке предстоит спасти нашу планету. Хорошо, что у них есть летающий автомобиль!

Выпущено: США / DreamWorks Animation
Продолжительность: 01:33:50
Озвучивание: Дублированное [iTunes]
Файл
Формат: AVI (XviD)
Качество: HDRip [Рип с BDRip 720p]
Видео: 1692 kb/s, 720x384
Аудио: AC3, 384 kb/s (6 ch)
Размер: 1.37 GB


Home.2015.BDRip.Rus.x264.C!v.mkv
Format : Matroska
Format version : Version 4 / Version 2
File size : 1.37 GiB
Duration : 1h 33mn
Overall bit rate : 2 086 Kbps
Encoded date : UTC 2015-07-03 19:12:35
Writing application : mkvmerge v6.5.0 ('Isn't she lovely')
built on Oct 20 2013 12:50:05
Writing library : libebml v1.3.0 + libmatroska v1.4.1
DURATION : 01:33:48.123000000
NUMBER_OF_FRAMES : 134940
NUMBER_OF_BYTES : 1196714350
_STATISTICS_WRITING_APP : mkvmerge v7.7.0 ('Six Voices')
32bit built on Feb 28 2015 23:23:00
_STATISTICS_WRITING_DATE_UTC : 2015-07-03 19:11:42
_STATISTICS_TAGS : BPS DURATION NUMBER_OF_FRAMES NUMBER_OF_BYTES
Video
ID : 1
Format : AVC
Format/Info : Advanced Video Codec
Format profile : High@L4.1
Format settings, CABAC : Yes
Format settings, ReFrames : 8 frames
Codec ID : V_MPEG4/ISO/AVC
Duration : 1h 33mn
Bit rate : 1 701 Kbps
Width : 720 pixels
Height : 384 pixels
Display aspect ratio : 1.875
Frame rate : 23.976 fps
Color space : YUV
Chroma subsampling : 4:2:0
Bit depth : 8 bits
Scan type : Progressive
Bits/(Pixel*Frame) : 0.257
Stream size : 1.09 GiB (80%)
Writing library : x264 core 146 r2538 121396c
Encoding settings : cabac=1 / ref=8 / deblock=1:-3:-3 / analyse=0x3:0x133
/ me=umh / subme=7 / psy=1 / psy_rd=1.00:0.15 / mixed_ref=1 / me_range=32 / chroma_me=1
/ trellis=1 / 8x8dct=1 / cqm=0 / deadzone=21,11 / fast_pskip=1 / chroma_qp_offset=-3
/ threads=12 / lookahead_threads=2 / sliced_threads=0 / nr=0 / decimate=1 / interlaced=0
/ bluray_compat=0 / constrained_intra=0 / bframes=6 / b_pyramid=2 / b_adapt=1 / b_bias=0
/ direct=1 / weightb=1 / open_gop=0 / weightp=2 / keyint=240 / keyint_min=23 / scenecut=40
/ intra_refresh=0 / rc_lookahead=40 / rc=2pass / mbtree=1 / bitrate=1701 / ratetol=1.0
/ qcomp=0.60 / qpmin=0 / qpmax=69 / qpstep=4 / cplxblur=20.0 / qblur=0.5 / vbv_maxrate=62500
/ vbv_bufsize=78125 / nal_hrd=none / filler=0 / ip_ratio=1.40 / aq=1:1.00
Default : Yes
Forced : No
Audio
ID : 2
Format : AC-3
Format/Info : Audio Coding 3
Mode extension : CM (complete main)
Codec ID : A_AC3
Duration : 1h 33mn
Bit rate mode : Constant
Bit rate : 384 Kbps
Channel(s) : 6 channels
Channel positions : Front: L C R, Side: L R, LFE
Sampling rate : 48.0 KHz
Bit depth : 16 bits
Compression mode : Lossy
Stream size : 258 MiB (18%)
Language : Russian
Default : Yes
Forced : No













   Похожие торренты   Торрент   Размер 
В этой теме нет новых непрочитанных сообщений. Дом, милый ад / Home Sweet Hell (2015) HDRip-AVC | iTunes

892 | 70

1.64 ГБ

В этой теме нет новых непрочитанных сообщений. Дом, милый ад / Home Sweet Hell (2015) HDRip | iTunes

6149 | 278

1.46 ГБ

В этой теме нет новых непрочитанных сообщений. Здравствуй, папа, Новый год / Daddy's Home (2015) HDRip от MegaPeer | iTunes

271 | 9

746.26 МБ

В этой теме нет новых непрочитанных сообщений. Дом / Home (2015) HRip | iTunes

520 | 63

2.19 ГБ

В этой теме нет новых непрочитанных сообщений. Дом / Home (2015) WEB-DL 1080p | iTunes

3976 | 48

3.82 ГБ

В этой теме нет новых непрочитанных сообщений. Дом / Home (2015) WEB-DLRip от -=HD-NET=- | КПК | iTunes

265 | 23

374.31 МБ

В этой теме нет новых непрочитанных сообщений. Дом / Home (2015) WEB-DLRip | iTunes

17286 | 354

1.37 ГБ




Вы не можете начинать темы
Вы не можете отвечать на сообщения
Вы не можете редактировать свои сообщения
Вы не можете удалять свои сообщения
Вы не можете добавлять вложения

Перейти:  
Для Мосгорсуда, Роскомнадзора и рекламодателей: mosgorsud-torrent[собачка]yandex.ru
 Вход
ppkBB3cker v.2 © 2008-2014 @ PPK
[ Time : 0.140s | 16 Queries | GZIP : Off ]

Торрент трекер RUTOR.IN, Не можете зайти на rutor.org? Какой новый адрес рутор? Какое зеркало рутор? Не работает rutor.org и зеркала? Тогда наш торрент специально для вас. Rutor.in неофициальное зеркало rutor. В случае если у Вас заблокирован rutor или вдруг Вы не можете на него зайти, то Вы без труда сможете скачать бесплатно и без рекламы последние новинки кино, игр, сериалов и прочего у нас, на Rutor.in. Не нужно использовать прокси, чтобы зайти на рутор, достаточно воспользоваться нашим ресурсом. Все новые фильмы, игры, сериалы, книги и музыка за 2013 и 2014 годы через торрент бесплатно. Скачивайте фильмы в хорошем качестве, игры для пк, xbox, playstation без регистрации. У нас вы найдете новые Зарубежные сериалы и Русские сериалы 2013, 2014, 2015 годов. Оставайтесь с нами, качайте любимые фильмы, игры, сериалы, книги и музыку.
cron