img image001 image001 image001 image001 image001 image001 image001 image001 image001 image001 image001 image001 image001 image001 image001

Planets Sun Sun Sun
Статистика раздачи
Автор: Nickolas3434 | Размер: 4.8 ГБ | Добавлен: 06 июл 2015
Раздают: 1026    Качают: 97
Скачать торрент
Скачать торрент
Описание торрента

СообщениеДобавлено: 06 июл 2015 


Информация о фильме
Название: Дом
Оригинальное название: Home
Год выпуска: 2015
Жанр: Мультфильм, фантастика, фэнтези, приключения, полнометражный
Выпущено: США, DreamWorks Animation
Режиссер: Тим Джонсон
В ролях: Джим Парсонс, Рианна, Стив Мартин, Дженнифер Лопес, Мэтт Джонс, Брайан Степанек, Эйприл Стрюбинг, Стивен Кеарин, Лиза Стюарт, Эйприл Уинчелл, Дерек Бланкеншип, Найджел В. Тирни
О фильме: Захватив Землю, раса пришельцев Був тут же начинает заниматься её благоустройством и реорганизацией. «Не стоит благодарности!» — заявляют они землянам, собранным на время в отдельных резервациях. Находчивая и рисковая девочка по имени Дар, чудом сбежавшая от пришельцев, встречает на своем пути самого раздражающе-оптимистичного Бува по имени О, отвергнутого своими инопланетными собратьями. Этой, казалось бы, несовместимой парочке предстоит спасти нашу планету. Хорошо, что у них есть летающий автомобиль!
Файл
Качество: BDRip (720p)
Видео: MPEG-4 AVC, 4150 Кбит/с, 1280x694
Аудио: Русский (AC3, 6 ch, 448 Кбит/с), (DTS, 6 ch, 768 Кбит/с), украинский (AC3, 6 ch, 448 Кбит/с), английский (DTS-ES, 6 ch, 1510 Кбит/с)
Продолжительность: 01:33:48
Перевод: Дублированный [лицензия]
Субтитры: Русские, английские, украинские
Семпл
x264 [info]: frame I:1308 Avg QP:15.23 size:123055
x264 [info]: frame P:41103 Avg QP:18.49 size: 37479
x264 [info]: frame B:92529 Avg QP:20.46 size: 13163
Общее
Уникальный идентификатор : 210854423772928127727697918723357424511 (0x9EA115B9B7C65E93B490705A622C3B7F)
Полное имя : C:Home.2015.720p.BluRay.x264.Rus.Ukr.Eng.Subs-bog3417.mkv
Формат : Matroska
Версия формата : Version 2
Размер файла : 4,80 Гбайт
Продолжительность : 1 ч. 33 м.
Общий поток : 7327 Кбит/сек
Название фильма : Home.2015.BDRip.720p_by_bog3417
Дата кодирования : UTC 2015-07-05 08:22:06
Программа кодирования : mkvmerge v7.9.0 ('Birds') 64bit
Библиотека кодирования : libebml v1.3.1 + libmatroska v1.4.2
Видео
Идентификатор : 1
Формат : AVC
Формат/Информация : Advanced Video Codec
Профиль формата : High@L4.1
Параметр CABAC формата : Да
Параметр ReFrames формата : 9 кадров
Идентификатор кодека : V_MPEG4/ISO/AVC
Продолжительность : 1 ч. 33 м.
Битрейт : 4150 Кбит/сек
Ширина : 1280 пикселей
Высота : 694 пикселя
Соотношение сторон : 1,85:1
Режим частоты кадров : Постоянный
Частота кадров : 23,976 кадра/сек
Цветовое пространство : YUV
Субдискретизация насыщенности : 4:2:0
Битовая глубина : 8 бит
Тип развёртки : Прогрессивная
Бит/(Пиксели*Кадры) : 0.195
Размер потока : 2,63 Гбайт (55%)
Заголовок : Home.2015.720p.BluRay.x264.Rus.Ukr.Eng.Subs-bog3417
Библиотека кодирования : x264 core 146 r2538 121396c
Настройки программы : cabac=1 / ref=9 / deblock=1:-2:-2 / analyse=0x3:0x33 / me=umh / subme=11 / psy=1 / psy_rd=1.00:0.00 / mixed_ref=1 / me_range=32 / chroma_me=1 / trellis=2 / 8x8dct=1 / cqm=0 / deadzone=21,11 / fast_pskip=0 / chroma_qp_offset=-2 / threads=12 / lookahead_threads=2 / sliced_threads=0 / nr=0 / decimate=0 / interlaced=0 / bluray_compat=0 / constrained_intra=0 / bframes=9 / b_pyramid=2 / b_adapt=2 / b_bias=0 / direct=3 / weightb=1 / open_gop=0 / weightp=2 / keyint=240 / keyint_min=23 / scenecut=40 / intra_refresh=0 / rc=2pass / mbtree=0 / bitrate=4150 / ratetol=1.0 / qcomp=0.60 / qpmin=0 / qpmax=69 / qpstep=4 / cplxblur=20.0 / qblur=0.5 / ip_ratio=1.40 / pb_ratio=1.30 / aq=1:1.10
Язык : English
Default : Да
Forced : Нет
Аудио #1
Идентификатор : 2
Формат : DTS
Формат/Информация : Digital Theater Systems
Режим : 16
Параметр Endianness формата : Big
Идентификатор кодека : A_DTS
Продолжительность : 1 ч. 33 м.
Вид битрейта : Постоянный
Битрейт : 768 Кбит/сек
Каналы : 6 каналов
Расположение каналов : Front: L C R, Side: L R, LFE
Частота : 48,0 КГц
Битовая глубина : 24 бит
Метод сжатия : С потерями
Размер потока : 515 Мбайт (10%)
Заголовок : DTS 5.1 @ 768 Kbps, Дубляж, Blu-Ray EUR
Язык : Russian
Default : Да
Forced : Нет
Аудио #2
Идентификатор : 3
Формат : AC-3
Формат/Информация : Audio Coding 3
Расширение режима : CM (complete main)
Параметр Endianness формата : Big
Идентификатор кодека : A_AC3
Продолжительность : 1 ч. 33 м.
Вид битрейта : Постоянный
Битрейт : 448 Кбит/сек
Каналы : 6 каналов
Расположение каналов : Front: L C R, Side: L R, LFE
Частота : 48,0 КГц
Метод сжатия : С потерями
Размер потока : 301 Мбайт (6%)
Заголовок : AC3 5.1 @ 448 Kbps, Дубляж, Blu-Ray EUR
Язык : Russian
Default : Нет
Forced : Нет
Аудио #3
Идентификатор : 4
Формат : AC-3
Формат/Информация : Audio Coding 3
Расширение режима : CM (complete main)
Параметр Endianness формата : Big
Идентификатор кодека : A_AC3
Продолжительность : 1 ч. 33 м.
Вид битрейта : Постоянный
Битрейт : 448 Кбит/сек
Каналы : 6 каналов
Расположение каналов : Front: L C R, Side: L R, LFE
Частота : 48,0 КГц
Метод сжатия : С потерями
Размер потока : 301 Мбайт (6%)
Заголовок : AC3 5.1 @ 448 Kbps, Дубляж, Blu-Ray EUR
Язык : Ukrainian
Default : Нет
Forced : Нет
Аудио #4
Идентификатор : 5
Формат : DTS
Формат/Информация : Digital Theater Systems
Профиль формата : ES
Режим : 16
Параметр Endianness формата : Big
Идентификатор кодека : A_DTS
Продолжительность : 1 ч. 33 м.
Вид битрейта : Постоянный
Битрейт : 1509 Кбит/сек
Каналы : 6 каналов
Расположение каналов : Front: L C R, Side: L R, LFE
Частота : 48,0 КГц
Битовая глубина : 24 бит
Метод сжатия : С потерями
Размер потока : 1012 Мбайт (21%)
Заголовок : Original
Язык : English
Default : Нет
Forced : Нет
Текст #1
Идентификатор : 6
Формат : UTF-8
Идентификатор кодека : S_TEXT/UTF8
Идентификатор кодека/Информация : UTF-8 Plain Text
Заголовок : full
Язык : Russian
Default : Нет
Forced : Нет
Текст #2
Идентификатор : 7
Формат : UTF-8
Идентификатор кодека : S_TEXT/UTF8
Идентификатор кодека/Информация : UTF-8 Plain Text
Заголовок : full
Язык : Ukrainian
Default : Нет
Forced : Нет
Текст #3
Идентификатор : 8
Формат : UTF-8
Идентификатор кодека : S_TEXT/UTF8
Идентификатор кодека/Информация : UTF-8 Plain Text
Заголовок : full
Язык : English
Default : Нет
Forced : Нет
Меню
00:00:00.000 : en:00:00:00.000
00:03:43.723 : en:00:03:43.723
00:07:28.406 : en:00:07:28.406
00:11:19.470 : en:00:11:19.470
00:14:26.949 : en:00:14:26.949
00:17:58.952 : en:00:17:58.952
00:21:05.639 : en:00:21:05.639
00:25:18.850 : en:00:25:18.850
00:29:07.078 : en:00:29:07.078
00:33:14.617 : en:00:33:14.617
00:38:58.961 : en:00:38:58.961
00:41:31.155 : en:00:41:31.155
00:44:27.539 : en:00:44:27.539
00:46:50.933 : en:00:46:50.933
00:51:34.758 : en:00:51:34.758
00:56:25.924 : en:00:56:25.924
01:00:43.681 : en:01:00:43.681
01:03:53.496 : en:01:03:53.496
01:06:57.722 : en:01:06:57.722
01:09:44.180 : en:01:09:44.180
01:13:55.764 : en:01:13:55.764
01:18:11.770 : en:01:18:11.770
01:21:55.368 : en:01:21:55.368
01:23:56.031 : en:01:23:56.031




Релиз от:



   Похожие торренты   Торрент   Размер 
В этой теме нет новых непрочитанных сообщений. Дом / Home (2015) BDRip 720p от HELLYWOOD | Лицензия

189 | 10

4.37 ГБ

В этой теме нет новых непрочитанных сообщений. Здравствуй, папа, Новый год / Daddy's Home (2015) BDRip 720p | Лицензия

290 | 15

5.17 ГБ

В этой теме нет новых непрочитанных сообщений. Дом / Home (2015) BDRip | Лицензия

6882 | 202

1.46 ГБ

В этой теме нет новых непрочитанных сообщений. Дом / Home (2015) BDRip-AVC от HELLYWOOD | Лицензия

490 | 18

2.18 ГБ

В этой теме нет новых непрочитанных сообщений. Дом / Home (2015) BDRip-AVC от HELLYWOOD | Лицензия

1480 | 318

1.46 ГБ

В этой теме нет новых непрочитанных сообщений. Дом / Home (2015) BDRip-AVC от New-Team | D | Лицензия

588 | 50

1.45 ГБ

В этой теме нет новых непрочитанных сообщений. Дом / Home (2015) BDRip-AVC от New-Team | D | Лицензия

1218 | 33

745.38 МБ




Вы не можете начинать темы
Вы не можете отвечать на сообщения
Вы не можете редактировать свои сообщения
Вы не можете удалять свои сообщения
Вы не можете добавлять вложения

Перейти:  
Для Мосгорсуда, Роскомнадзора и рекламодателей: mosgorsud-torrent[собачка]yandex.ru
 Вход
ppkBB3cker v.2 © 2008-2014 @ PPK
[ Time : 0.130s | 14 Queries | GZIP : Off ]

Торрент трекер RUTOR.IN, Не можете зайти на rutor.org? Какой новый адрес рутор? Какое зеркало рутор? Не работает rutor.org и зеркала? Тогда наш торрент специально для вас. Rutor.in неофициальное зеркало rutor. В случае если у Вас заблокирован rutor или вдруг Вы не можете на него зайти, то Вы без труда сможете скачать бесплатно и без рекламы последние новинки кино, игр, сериалов и прочего у нас, на Rutor.in. Не нужно использовать прокси, чтобы зайти на рутор, достаточно воспользоваться нашим ресурсом. Все новые фильмы, игры, сериалы, книги и музыка за 2013 и 2014 годы через торрент бесплатно. Скачивайте фильмы в хорошем качестве, игры для пк, xbox, playstation без регистрации. У нас вы найдете новые Зарубежные сериалы и Русские сериалы 2013, 2014, 2015 годов. Оставайтесь с нами, качайте любимые фильмы, игры, сериалы, книги и музыку.