img image001 image001 image001 image001 image001 image001 image001 image001 image001 image001 image001 image001 image001 image001 image001

Planets Sun Sun Sun
Статистика раздачи
Автор: Nickolas3434 | Размер: 9.53 ГБ | Добавлен: 06 июл 2015
Раздают: 487    Качают: 24
Скачать торрент
Скачать торрент
Описание торрента

СообщениеДобавлено: 06 июл 2015 


Информация о фильме
Название: Дом
Оригинальное название: Home
Год выпуска: 2015
Жанр: Мультфильм, фантастика, фэнтези, приключения, полнометражный
Выпущено: США, DreamWorks Animation
Режиссер: Тим Джонсон
В ролях: Джим Парсонс, Рианна, Стив Мартин, Дженнифер Лопес, Мэтт Джонс, Брайан Степанек, Эйприл Стрюбинг, Стивен Кеарин, Лиза Стюарт, Эйприл Уинчелл, Дерек Бланкеншип, Найджел В. Тирни
О фильме: Захватив Землю, раса пришельцев Був тут же начинает заниматься её благоустройством и реорганизацией. «Не стоит благодарности!» — заявляют они землянам, собранным на время в отдельных резервациях. Находчивая и рисковая девочка по имени Дар, чудом сбежавшая от пришельцев, встречает на своем пути самого раздражающе-оптимистичного Бува по имени О, отвергнутого своими инопланетными собратьями. Этой, казалось бы, несовместимой парочке предстоит спасти нашу планету. Хорошо, что у них есть летающий автомобиль!
Контейнер: MKV
Формат 3D: Half OverUnder / Вертикальная анаморфная стереопара
Порядок ракурсов: левый ракурс первый
Файл
Качество: BDRip (1080p)
Видео: MPEG-4 AVC, 11100 Кбит/с, 1920x1080
Аудио: Русский (AC3, 6 ch, 448 Кбит/с), (DTS, 6 ch, 768 Кбит/с), украинский (AC3, 6 ch, 448 Кбит/с), английский (DTS-ES, 6 ch, 1510 Кбит/с)
Размер: 9.53 ГБ
Продолжительность: 01:33:48
Перевод: Дублированный [лицензия]
Субтитры: Русские, английские, украинские
Семпл
Общее
Уникальный идентификатор : 208342959089276732146410107458501269079 (0x9CBD64F4DB824FEAB6BFB50D8C3CD657)
Полное имя : C:Home.2015.3D.1080p.BluRay.Half-OU.mkv
Формат : Matroska
Версия формата : Version 3 / Version 2
Размер файла : 9,53 Гбайт
Продолжительность : 1 ч. 33 м.
Общий поток : 14,5 Мбит/сек
Название фильма : Home
Дата кодирования : UTC 2015-07-05 13:34:59
Программа кодирования : mkvmerge v7.9.0 ('Birds') 64bit
Библиотека кодирования : libebml v1.3.1 + libmatroska v1.4.2
Видео
Идентификатор : 1
Формат : AVC
Формат/Информация : Advanced Video Codec
Профиль формата : High@L4.1
MultiView_Count : 2
MultiView_Layout : Top-Bottom (left eye first)
Параметр CABAC формата : Да
Параметр ReFrames формата : 4 кадра
Идентификатор кодека : V_MPEG4/ISO/AVC
Продолжительность : 1 ч. 33 м.
Битрейт : 11,1 Мбит/сек
Ширина : 1920 пикселей
Высота : 1080 пикселей
Соотношение сторон : 16:9
Режим частоты кадров : Постоянный
Частота кадров : 23,976 кадра/сек
Цветовое пространство : YUV
Субдискретизация насыщенности : 4:2:0
Битовая глубина : 8 бит
Тип развёртки : Прогрессивная
Бит/(Пиксели*Кадры) : 0.223
Размер потока : 7,26 Гбайт (76%)
Библиотека кодирования : x264 core 146 r2538 121396c
Настройки программы : cabac=1 / ref=4 / deblock=1:1:1 / analyse=0x3:0x113 / me=umh / subme=10 / psy=1 / psy_rd=0.40:0.10 / mixed_ref=1 / me_range=48 / chroma_me=1 / trellis=2 / 8x8dct=1 / cqm=0 / deadzone=21,11 / fast_pskip=1 / chroma_qp_offset=-3 / threads=16 / lookahead_threads=1 / sliced_threads=0 / nr=0 / decimate=1 / interlaced=0 / bluray_compat=0 / constrained_intra=0 / bframes=6 / b_pyramid=2 / b_adapt=2 / b_bias=0 / direct=1 / weightb=1 / open_gop=0 / weightp=2 / keyint=250 / keyint_min=23 / scenecut=40 / intra_refresh=0 / rc_lookahead=40 / rc=crf / mbtree=1 / crf=15.0 / qcomp=0.60 / qpmin=0 / qpmax=69 / qpstep=4 / vbv_maxrate=30000 / vbv_bufsize=38000 / crf_max=0.0 / nal_hrd=none / filler=0 / frame-packing=4 / ip_ratio=1.40 / aq=3:0.50
Default : Да
Forced : Нет
Цветовой диапазон : Limited
Основные цвета : BT.709
Характеристики трансфера : BT.709
Коэффициенты матрицы : BT.709
Аудио #1
Идентификатор : 2
Формат : DTS
Формат/Информация : Digital Theater Systems
Режим : 16
Параметр Endianness формата : Big
Идентификатор кодека : A_DTS
Продолжительность : 1 ч. 33 м.
Вид битрейта : Постоянный
Битрейт : 768 Кбит/сек
Каналы : 6 каналов
Расположение каналов : Front: L C R, Side: L R, LFE
Частота : 48,0 КГц
Битовая глубина : 24 бит
Метод сжатия : С потерями
Размер потока : 515 Мбайт (5%)
Заголовок : DTS 5.1 @ 768 Kbps, Дубляж, Blu-Ray EUR
Язык : Russian
Default : Да
Forced : Нет
Аудио #2
Идентификатор : 3
Формат : AC-3
Формат/Информация : Audio Coding 3
Расширение режима : CM (complete main)
Параметр Endianness формата : Big
Идентификатор кодека : A_AC3
Продолжительность : 1 ч. 33 м.
Вид битрейта : Постоянный
Битрейт : 448 Кбит/сек
Каналы : 6 каналов
Расположение каналов : Front: L C R, Side: L R, LFE
Частота : 48,0 КГц
Метод сжатия : С потерями
Размер потока : 301 Мбайт (3%)
Заголовок : AC3 5.1 @ 448 Kbps, Дубляж, Blu-Ray EUR
Язык : Russian
Default : Нет
Forced : Нет
Аудио #3
Идентификатор : 4
Формат : AC-3
Формат/Информация : Audio Coding 3
Расширение режима : CM (complete main)
Параметр Endianness формата : Big
Идентификатор кодека : A_AC3
Продолжительность : 1 ч. 33 м.
Вид битрейта : Постоянный
Битрейт : 448 Кбит/сек
Каналы : 6 каналов
Расположение каналов : Front: L C R, Side: L R, LFE
Частота : 48,0 КГц
Метод сжатия : С потерями
Размер потока : 301 Мбайт (3%)
Заголовок : AC3 5.1 @ 448 Kbps, Дубляж, Blu-Ray EUR
Язык : Ukrainian
Default : Нет
Forced : Нет
Аудио #4
Идентификатор : 5
Формат : DTS
Формат/Информация : Digital Theater Systems
Профиль формата : ES
Режим : 16
Параметр Endianness формата : Big
Идентификатор кодека : A_DTS
Продолжительность : 1 ч. 33 м.
Вид битрейта : Постоянный
Битрейт : 1509 Кбит/сек
Каналы : 6 каналов
Расположение каналов : Front: L C R, Side: L R, LFE
Частота : 48,0 КГц
Битовая глубина : 24 бит
Метод сжатия : С потерями
Размер потока : 1012 Мбайт (10%)
Заголовок : Original
Язык : English
Default : Нет
Forced : Нет
Текст #1
Идентификатор : 6
Формат : UTF-8
Идентификатор кодека : S_TEXT/UTF8
Идентификатор кодека/Информация : UTF-8 Plain Text
Заголовок : full
Язык : Russian
Default : Нет
Forced : Нет
Текст #2
Идентификатор : 7
Формат : UTF-8
Идентификатор кодека : S_TEXT/UTF8
Идентификатор кодека/Информация : UTF-8 Plain Text
Заголовок : full
Язык : Ukrainian
Default : Нет
Forced : Нет
Текст #3
Идентификатор : 8
Формат : UTF-8
Идентификатор кодека : S_TEXT/UTF8
Идентификатор кодека/Информация : UTF-8 Plain Text
Заголовок : full
Язык : English
Default : Нет
Forced : Нет
Меню
00:00:00.000 : en:00:00:00.000
00:03:43.723 : en:00:03:43.723
00:07:28.406 : en:00:07:28.406
00:11:19.470 : en:00:11:19.470
00:14:26.949 : en:00:14:26.949
00:17:58.952 : en:00:17:58.952
00:21:05.639 : en:00:21:05.639
00:25:18.850 : en:00:25:18.850
00:29:07.078 : en:00:29:07.078
00:33:14.617 : en:00:33:14.617
00:38:58.961 : en:00:38:58.961
00:41:31.155 : en:00:41:31.155
00:44:27.539 : en:00:44:27.539
00:46:50.933 : en:00:46:50.933
00:51:34.758 : en:00:51:34.758
00:56:25.924 : en:00:56:25.924
01:00:43.681 : en:01:00:43.681
01:03:53.496 : en:01:03:53.496
01:06:57.722 : en:01:06:57.722
01:09:44.180 : en:01:09:44.180
01:13:55.764 : en:01:13:55.764
01:18:11.770 : en:01:18:11.770
01:21:55.368 : en:01:21:55.368
01:23:56.031 : en:01:23:56.031






   Похожие торренты   Торрент   Размер 
В этой теме нет новых непрочитанных сообщений. Дом / Home (2015) BDRip 1080p | 3D-Video | HSBS | Лицензия

549 | 38

8.63 ГБ

В этой теме нет новых непрочитанных сообщений. Дом / Home (2015) [2D/3D] BDRemux 1080p от HDClub | 3D-Video | Лицензия

75 | 22

32.12 ГБ

В этой теме нет новых непрочитанных сообщений. Дом / Home (2015) BDRip 1080p от Ash61 | 3D-Video | halfOU

1655 | 156

8.84 ГБ

В этой теме нет новых непрочитанных сообщений. Дом / Home (2015) BDRip 1080p | Лицензия

2065 | 187

7.1 ГБ

В этой теме нет новых непрочитанных сообщений. Здравствуй, папа, Новый год / Daddy's Home (2015) BDRip 1080p | Лицензия

490 | 31

8.97 ГБ

В этой теме нет новых непрочитанных сообщений. Здравствуй, папа, Новый год / Daddy's Home (2015) BDRip 1080p от NNNB | Лицензия

140 | 12

7.74 ГБ

В этой теме нет новых непрочитанных сообщений. Дом / Home (2015) Blu-Ray 1080p | Лицензия

44 | 34

42.4 ГБ




Вы не можете начинать темы
Вы не можете отвечать на сообщения
Вы не можете редактировать свои сообщения
Вы не можете удалять свои сообщения
Вы не можете добавлять вложения

Перейти:  
Для Мосгорсуда, Роскомнадзора и рекламодателей: mosgorsud-torrent[собачка]yandex.ru
 Вход
ppkBB3cker v.2 © 2008-2014 @ PPK
[ Time : 0.637s | 15 Queries | GZIP : Off ]

Торрент трекер RUTOR.IN, Не можете зайти на rutor.org? Какой новый адрес рутор? Какое зеркало рутор? Не работает rutor.org и зеркала? Тогда наш торрент специально для вас. Rutor.in неофициальное зеркало rutor. В случае если у Вас заблокирован rutor или вдруг Вы не можете на него зайти, то Вы без труда сможете скачать бесплатно и без рекламы последние новинки кино, игр, сериалов и прочего у нас, на Rutor.in. Не нужно использовать прокси, чтобы зайти на рутор, достаточно воспользоваться нашим ресурсом. Все новые фильмы, игры, сериалы, книги и музыка за 2013 и 2014 годы через торрент бесплатно. Скачивайте фильмы в хорошем качестве, игры для пк, xbox, playstation без регистрации. У нас вы найдете новые Зарубежные сериалы и Русские сериалы 2013, 2014, 2015 годов. Оставайтесь с нами, качайте любимые фильмы, игры, сериалы, книги и музыку.
cron