img image001 image001 image001 image001 image001 image001 image001 image001 image001 image001 image001 image001 image001 image001 image001

Planets Sun Sun Sun
Статистика раздачи
Автор: Nickolas3434 | Размер: 2.91 ГБ | Добавлен: 06 июл 2015
Раздают: 1735    Качают: 118
Скачать торрент
Скачать торрент
Описание торрента

СообщениеДобавлено: 06 июл 2015 


Информация о фильме
Название: Дом
Оригинальное название: Home
Год выхода: 2015
Жанр: мультфильм, фантастика, фэнтези, комедия, приключения, семейный
Режиссер: Тим Джонсон
В ролях: Джим Парсонс, Рианна, Стив Мартин, Дженнифер Лопез, Мэтт Джонс, Брайан Степанек, Эйприл Стрюбинг, Стивен Кеарин, Лиза Стюарт, Эйприл Уинчелл
О фильме: Захватив Землю, раса пришельцев Був тут же начинает заниматься её благоустройством и реорганизацией. «Не стоит благодарности!» — заявляют они землянам, собранным на время в отдельных резервациях. Находчивая и рисковая девочка по имени Дар, чудом сбежавшая от пришельцев, встречает на своем пути самого раздражающе-оптимистичного Бува по имени О, отвергнутого своими инопланетными собратьями. Этой, казалось бы, несовместимой парочке предстоит спасти нашу планету. Хорошо, что у них есть летающий автомобиль!

Выпущено: DreamWorks Animation
Продолжительность: 01:33:48
Перевод: Дублированный (лицензия)
Файл
Кодек: x264
Качество: BDRip (источник: Blu-ray Disc)
Видео: 1280x694 (1,85:1), 23.976 fps, 3550 kbps
Аудио #1: AC-3, 6 ch, 448 kbps (Rus)
Аудио #2: AC-3, 6 ch, 448 kbps (Eng)
Субтитры: Русские (форс,полные), Английские
Скачать: сэмпл
Скриншоты

Общее
Уникальный идентификатор : 244832332315723729359115213466939122960 (0xB830FDF4C46AC98289C3F60A881B6510)
Полное имя : Home.2015.BDRip.720p.Rus.Eng.mkv
Формат : Matroska
Версия формата : Version 2
Размер файла : 2,91 Гбайт
Продолжительность : 1 ч. 33 м.
Общий поток : 4447 Кбит/сек
Название фильма : Дом / Home (2015)
Дата кодирования : UTC 2015-07-05 17:42:23
Программа кодирования : mkvmerge v5.8.0 ('No Sleep / Pillow') built on Sep 2 2012 15:37:04
Библиотека кодирования : libebml v1.2.3 + libmatroska v1.3.0
Видео
Идентификатор : 1
Формат : AVC
Формат/Информация : Advanced Video Codec
Профиль формата : High@L4.1
Параметр CABAC формата : Да
Параметр ReFrames формата : 7 кадров
Идентификатор кодека : V_MPEG4/ISO/AVC
Продолжительность : 1 ч. 33 м.
Битрейт : 3550 Кбит/сек
Ширина : 1280 пикселей
Высота : 694 пикселя
Соотношение сторон : 1,85:1
Режим частоты кадров : Постоянный
Частота кадров : 23,976 кадра/сек
Цветовое пространство : YUV
Субдискретизация насыщенности : 4:2:0
Битовая глубина : 8 бит
Тип развёртки : Прогрессивная
Бит/(Пиксели*Кадры) : 0.167
Размер потока : 2,27 Гбайт (78%)
Заголовок : Release by AlexKa
Библиотека кодирования : x264 core 146 r2538 121396c
Настройки программы : cabac=1 / ref=7 / deblock=1:0:0 / analyse=0x3:0x133 / me=umh / subme=11 / psy=1 / psy_rd=1.00:0.00 / mixed_ref=1 / me_range=32 / chroma_me=1 / trellis=2 / 8x8dct=1 / cqm=0 / deadzone=21,11 / fast_pskip=0 / chroma_qp_offset=-2 / threads=12 / lookahead_threads=2 / sliced_threads=0 / nr=0 / decimate=1 / interlaced=0 / bluray_compat=0 / constrained_intra=0 / bframes=7 / b_pyramid=2 / b_adapt=2 / b_bias=0 / direct=3 / weightb=1 / open_gop=0 / weightp=2 / keyint=240 / keyint_min=23 / scenecut=40 / intra_refresh=0 / rc=2pass / mbtree=0 / bitrate=3550 / ratetol=1.0 / qcomp=0.60 / qpmin=0 / qpmax=69 / qpstep=4 / cplxblur=20.0 / qblur=0.5 / ip_ratio=1.40 / pb_ratio=1.30 / aq=1:1.00
Язык : English
Аудио #1
Идентификатор : 2
Формат : AC-3
Формат/Информация : Audio Coding 3
Расширение режима : CM (complete main)
Параметр Endianness формата : Big
Идентификатор кодека : A_AC3
Продолжительность : 1 ч. 33 м.
Вид битрейта : Постоянный
Битрейт : 448 Кбит/сек
Каналы : 6 каналов
Расположение каналов : Front: L C R, Side: L R, LFE
Частота : 48,0 КГц
Метод сжатия : С потерями
Размер потока : 301 Мбайт (10%)
Заголовок : Rus
Язык : Russian
Аудио #2
Идентификатор : 3
Формат : AC-3
Формат/Информация : Audio Coding 3
Расширение режима : CM (complete main)
Параметр Endianness формата : Big
Идентификатор кодека : A_AC3
Продолжительность : 1 ч. 33 м.
Вид битрейта : Постоянный
Битрейт : 448 Кбит/сек
Каналы : 6 каналов
Расположение каналов : Front: L C R, Side: L R, LFE
Частота : 48,0 КГц
Метод сжатия : С потерями
Размер потока : 301 Мбайт (10%)
Заголовок : Eng
Язык : English
Текст #1
Идентификатор : 4
Формат : UTF-8
Идентификатор кодека : S_TEXT/UTF8
Идентификатор кодека/Информация : UTF-8 Plain Text
Заголовок : Rus forced
Язык : Russian
Текст #2
Идентификатор : 5
Формат : UTF-8
Идентификатор кодека : S_TEXT/UTF8
Идентификатор кодека/Информация : UTF-8 Plain Text
Заголовок : Rus
Язык : Russian
Текст #3
Идентификатор : 6
Формат : UTF-8
Идентификатор кодека : S_TEXT/UTF8
Идентификатор кодека/Информация : UTF-8 Plain Text
Заголовок : Eng
Язык : English
Меню
00:00:00.000 : :Chapter 01
00:03:43.723 : :Chapter 02
00:07:28.406 : :Chapter 03
00:11:19.470 : :Chapter 04
00:14:26.949 : :Chapter 05
00:17:58.952 : :Chapter 06
00:21:05.639 : :Chapter 07
00:25:18.850 : :Chapter 08
00:29:07.078 : :Chapter 09
00:33:14.617 : :Chapter 10
00:38:58.961 : :Chapter 11
00:41:31.155 : :Chapter 12
00:44:27.539 : :Chapter 13
00:46:50.933 : :Chapter 14
00:51:34.758 : :Chapter 15
00:56:25.924 : :Chapter 16
01:00:43.681 : :Chapter 17
01:03:53.496 : :Chapter 18
01:06:57.722 : :Chapter 19
01:09:44.180 : :Chapter 20
01:13:55.764 : :Chapter 21
01:18:11.770 : :Chapter 22
01:21:55.368 : :Chapter 23
01:23:56.031 : :Chapter 24
01:33:47.955 : :Chapter 25
x264 [info]: frame I:1443 Avg QP:16.41 size:107774
x264 [info]: frame P:36325 Avg QP:19.12 size: 32924
x264 [info]: frame B:97173 Avg QP:21.76 size: 11788
x264 [info]: consecutive B-frames: 4.7% 4.8% 16.6% 32.4% 17.3% 18.6% 2.3% 3.4%



   Похожие торренты   Торрент   Размер 
В этой теме нет новых непрочитанных сообщений. Азбука цветов: Дом, милый дом / Gekijouban Hana-Saku Iroha: Home Sweet Home (2013) BDRip 720p | AniFilm

29 | 7

936.27 МБ

В этой теме нет новых непрочитанных сообщений. Дом / Home (2015) BDRip 720p от NNNB | 60 fps

466 | 65

5.62 ГБ

В этой теме нет новых непрочитанных сообщений. Дом / Home (2015) BDRip 720p | Лицензия

1026 | 97

4.8 ГБ

В этой теме нет новых непрочитанных сообщений. Дом / Home (2015) BDRip 720p от HELLYWOOD | Лицензия

189 | 10

4.37 ГБ

В этой теме нет новых непрочитанных сообщений. Милый дом / Sweet Home (2015) BDRip 720p | L

699 | 104

3.43 ГБ

В этой теме нет новых непрочитанных сообщений. Здравствуй, папа, Новый год / Daddy's Home (2015) BDRip 720p | iTunes

1046 | 107

5.75 ГБ

В этой теме нет новых непрочитанных сообщений. Здравствуй, папа, Новый год / Daddy's Home (2015) BDRip 720p | Лицензия

530 | 27

5.17 ГБ




Вы не можете начинать темы
Вы не можете отвечать на сообщения
Вы не можете редактировать свои сообщения
Вы не можете удалять свои сообщения
Вы не можете добавлять вложения

Перейти:  
Для Мосгорсуда, Роскомнадзора и рекламодателей: mosgorsud-torrent[собачка]yandex.ru
 Вход
ppkBB3cker v.2 © 2008-2014 @ PPK
[ Time : 0.029s | 14 Queries | GZIP : Off ]

Торрент трекер RUTOR.IN, Не можете зайти на rutor.org? Какой новый адрес рутор? Какое зеркало рутор? Не работает rutor.org и зеркала? Тогда наш торрент специально для вас. Rutor.in неофициальное зеркало rutor. В случае если у Вас заблокирован rutor или вдруг Вы не можете на него зайти, то Вы без труда сможете скачать бесплатно и без рекламы последние новинки кино, игр, сериалов и прочего у нас, на Rutor.in. Не нужно использовать прокси, чтобы зайти на рутор, достаточно воспользоваться нашим ресурсом. Все новые фильмы, игры, сериалы, книги и музыка за 2013 и 2014 годы через торрент бесплатно. Скачивайте фильмы в хорошем качестве, игры для пк, xbox, playstation без регистрации. У нас вы найдете новые Зарубежные сериалы и Русские сериалы 2013, 2014, 2015 годов. Оставайтесь с нами, качайте любимые фильмы, игры, сериалы, книги и музыку.