img image001 image001 image001 image001 image001 image001 image001 image001 image001 image001 image001 image001 image001 image001 image001

Planets Sun Sun Sun
Статистика раздачи
Автор: Nickolas3434 | Размер: 2.89 ГБ | Добавлен: 07 июл 2015
Раздают: 707    Качают: 80
Скачать торрент
Скачать торрент
Описание торрента

СообщениеДобавлено: 07 июл 2015 


Информация о фильме
Название: Том и Джерри: Шпион Квест
Оригинальное название: Tom and Jerry: Spy Quest
Год выхода: 2015
Жанр: Мультфильм
Режиссер: Спайк Брандт, Тони Червоне
В ролях: Риз Хартвиг
О фильме:
Ещё один день на пляже для проблемной парочки, пока Том и Джерри не сталкиваются со шпионами Джонни Квестом, Хаджи и Бандитом. Когда давний враг семьи Квестов, доктор Зин, узнаёт о том, что у Бентона Квеста есть орудие решения энергетических проблем мира, он посылает армию злобных кошек украсть его и взять в плен Бентона вместе с охранником Рэйсом Бэнноном. Джонни и его новые пушистые друзья отправляются на опасные поиски отца в попытке спасти мир!

Страна: США
Студия: Warner Bros. Animation
Продолжительность: 01:12:53
Перевод: Профессиональный (многоголосный) [iTunes]
Файл
Кодек: H264
Качество: WEB-DL 1080p
Видео: 1912x1072, 5 173 Kbps, 23.976 fps.
Звук: AC-3, 384 Kbps, 6 ch, 48.0 KHz
Субтитры: нет
Format : Matroska
Format version : Version 4 / Version 2
File size : 2.89 GiB
Duration : 1h 12mn
Overall bit rate : 5 670 Kbps
Movie name : Том и Джерри: Шпион Квест
Encoded date : UTC 2015-07-06 06:21:40
Writing application : mkvmerge v7.8.0 ('River Man') 32bit built on Mar 27 2015 16:18:02
Writing library : libebml v1.3.1 + libmatroska v1.4.2
DURATION : 01:12:52.832000000
NUMBER_OF_FRAMES : 136651
NUMBER_OF_BYTES : 209895936
_STATISTICS_WRITING_APP : mkvmerge v7.8.0 ('River Man') 32bit built on Mar 27 2015 16:18:02
_STATISTICS_WRITING_DATE_UT : 2015-07-06 06:21:40
_STATISTICS_TAGS : BPS DURATION NUMBER_OF_FRAMES NUMBER_OF_BYTES
Video
ID : 1
Format : AVC
Format/Info : Advanced Video Codec
Format profile : High@L4
Format settings, CABAC : Yes
Format settings, ReFrames : 4 frames
Codec ID : V_MPEG4/ISO/AVC
Duration : 1h 12mn
Bit rate : 5 173 Kbps
Width : 1 912 pixels
Height : 1 072 pixels
Display aspect ratio : 16:9
Frame rate mode : Constant
Frame rate : 23.976 fps
Color space : YUV
Chroma subsampling : 4:2:0
Bit depth : 8 bits
Scan type : Progressive
Bits/(Pixel*Frame) : 0.105
Stream size : 2.63 GiB (91%)
Title : Том и Джерри: Шпион Квест
Language : Russian
Default : Yes
Forced : No
Color range : Limited
Color primaries : BT.709
Transfer characteristics : BT.709
Matrix coefficients : BT.709
Audio
ID : 2
Format : AC-3
Format/Info : Audio Coding 3
Mode extension : CM (complete main)
Format settings, Endianness : Big
Codec ID : A_AC3
Duration : 1h 12mn
Bit rate mode : Constant
Bit rate : 384 Kbps
Channel(s) : 6 channels
Channel positions : Front: L C R, Side: L R, LFE
Sampling rate : 48.0 KHz
Compression mode : Lossy
Stream size : 200 MiB (7%)
Title : Том и Джерри: Шпион Квест
Language : Russian
Default : Yes
Forced : No
Menu
00:00:00.000 : en:1
00:07:45.000 : en:2
00:13:51.000 : en:3
00:20:37.000 : en:4
00:27:31.000 : en:5
00:34:56.000 : en:6
00:39:26.000 : en:7
00:45:32.000 : en:8
00:54:51.000 : en:9
01:01:04.000 : en:10
01:05:46.000 : en:11
01:10:06.000 : en:12




   Похожие торренты   Торрент   Размер 
В этой теме нет новых непрочитанных сообщений. Том и Джерри: Шпион Квест / Tom and Jerry: Spy Quest (2015) WEB-DLRip-AVC от ExKinoray | iTunes

864 | 39

1.37 ГБ

В этой теме нет новых непрочитанных сообщений. Том и Джерри: Шпион Квест / Tom and Jerry: Spy Quest (2015) WEB-DLRip от MegaPeer | iTunes

307 | 19

699.99 МБ

В этой теме нет новых непрочитанных сообщений. Том и Джерри: Шпион Квест / Tom and Jerry: Spy Quest (2015) WEB-DLRip | P

2203 | 92

1.37 ГБ

В этой теме нет новых непрочитанных сообщений. Том и Джерри: Шпион Квест / Tom and Jerry: Spy Quest + 4 бонуса (2015) DVDRip | P | лицензия

257 | 64

2.4 ГБ

В этой теме нет новых непрочитанных сообщений. Том и Джерри: Шпион Квест / Tom and Jerry: Spy Quest + 4 бонуса (2015) DVDRip-AVC | P | лицензия

299 | 34

2.4 ГБ

В этой теме нет новых непрочитанных сообщений. Том и Джерри: Шпион Квест (Шпионские игры) / Tom and Jerry: Spy Quest (2015) DVD9 от New-Team | P | Лицензия

7 | 0

6 ГБ

В этой теме нет новых непрочитанных сообщений. Квест / The Quest [01x01] (2014) WEB-DL 1080p | BaibaKo

142 | 12

1.77 ГБ




Вы не можете начинать темы
Вы не можете отвечать на сообщения
Вы не можете редактировать свои сообщения
Вы не можете удалять свои сообщения
Вы не можете добавлять вложения

Перейти:  
Для Мосгорсуда, Роскомнадзора и рекламодателей: mosgorsud-torrent[собачка]yandex.ru
 Вход
ppkBB3cker v.2 © 2008-2014 @ PPK
[ Time : 0.028s | 15 Queries | GZIP : Off ]

cron