img image001 image001 image001 image001 image001 image001 image001 image001 image001 image001 image001 image001 image001 image001 image001

Planets Sun Sun Sun
Статистика раздачи
Автор: Nickolas3434 | Размер: 7.98 ГБ | Добавлен: 08 июл 2015
Раздают: 105    Качают: 63
Скачать торрент
Скачать торрент
Описание торрента

СообщениеДобавлено: 08 июл 2015 


Информация о фильме
Название: Рыцарь Майк
Оригинальное название: Mike the Knight
Год выхода: 2012
Жанр: мультфильм, семейный
Режиссер: Нил Аффлек
В ролях: Саманта Рейнольдс, Трек Буччино, Элисон Корт, Эрин Питт, Мартин Роуч, Луис Сюк, Маттео Браголи, Бет Чалмерс, Боб Голдинг, Колин МакФарлэйн
О фильме:
Юный Майк живет в средневековом королевстве. Сын короля и королевы, он твердо решил стать благородным рыцарем, как и его отец. Выбрав своим девизом фразу «Время быть рыцарем, а рыцарь может всё!», Майк учится быть сильным, всегда поступать справедливо. Юный рыцарь с бурлящим энтузиазмом принимает любые вызовы, будь то охрана замка, организация праздника или спасение принцессы. Ежедневно он будет выполнять новые миссии и становиться похожим на настоящего рыцаря, конечно, не без помощи своих верных друзей.
01. Рыцарь Майк и ночной страж / The Night Time Lookout
02. Рыцарь Майк и новый друг Иви / Evie's New Friend
03. Рыцарь Майк и супер-катапульта / The Super Trebuchet
04. Рыцарь Майк и большой оркестр Глендрагона / 04 The Glendragon Big Band
05. Рыцарь Майк и птичья тренировка / Bird Training
06. Рыцарь Майк и сломанный щит / The Broken Shield
07. Рыцарь Майк и помощь Иви / Evie's Help
08. Рыцарь Майк и ученик Тролли / Trollee, the apprentice
09. Рыцарь Майк и день обмана / Fooling Day
10. Рыцарь Майк и безопасное королевство / The Safest Kingdom
11. Рыцарь Майк и королевская пьеса / The King's Play
12. Рыцарь Майк и подарок для Тролли / The Present for Trollee
13. Рыцарь Майк и собаки / The Undragonly Dogs
14. Рыцарь Майк и рыцарь Иви / Evie the Knight
15. Рыцарь Майк и Забег Смеха / The Glendragon Fun Run
16. Рыцарь Майк и храбрая песня / The Brave Song
17. Рыцарь Майк и большая картина / The Glendragon Big Picture
18. Рыцарь Майк и рыцарский сачок / The Knightly Net
19. Рыцарь Майк и большой ремонт / The Big Fix
20. Рыцарь Майк и дракон без огня / The Fireless Dragon
21. Рыцарь Майк и рыцарь на день / The Knight for a Day
22. Рыцарь Майк и спрятанный сад / The Hidden Garden
23. Рыцарь Майк и хитрости обучения / The Knightly Training Tricks
24. Рыцарь Майк и пропавший снеговик / The Missing Snowman
27. Рыцарь Майк и Горгулья / The Gargoyle
28. Рыцарь Майк и деревянный конь / The Wooden Horse
29. Рыцарь Майк и настоящий спектакль / The Knightly Play
30. Рыцарь Майк и экскурсия по замку / Tour of the Castle
31. Рыцарь Майк и купание мистера Каддлза / Mr Cuddles' Bath Time
32. Рыцарь Майк и придворный шут / The Court Jester
33. Рыцарь Майк и Великий Вальдорфини / The Great Waldorfini
34. Рыцарь Майк и особые рыцарские вещи
35. Рыцарь Майк и путешествие по следам Тролля / The Troll Trail Adventure
36. Рыцарь Майк и спящий дракон / The Snoring Dragon
37. Рыцарь Майк и волшебная ошибка / Evie's Magical Mistake
38. Рыцарь Майк и три задания / The Three Missions
39. Рыцарь Майк и турнир / The Super Troll Ball
40. Рыцарь Майк и лучший страж / The Best Lookout
41. Рыцарь Майк и школа для рыцарей / Knight School
42. Рыцарь Майк и день рождения Галахада / Рыцарь Майк и день рождения Галахада
43. Рыцарь Майк и точный план / Squirt Sticking to the Plan
44. Рыцарь Майк и украденный посох / The Stolen Staff
45. Рыцарь Майк и щенки Иви / Evie's Pet Puppies
46. Рыцарь Майк и волшебный цветок / The Magical Flower
47. Рыцарь Майк и заклинание
48. Рыцарь Майк и миссия Фернандо / Fernando's Mission
49. Рыцарь Майк и игры в спрятанном саду / The Hidden Garden Games
50. Рыцарь Майк и тройные неприятности / The Triple Trouble
51. Рыцарь Майк и история на ночь / The Bedtime Story
52. Рыцарь Майк и большая книга / The Big Book of Training


Страна: Канада, Великобритания
Студия: HIT Entertainment, Nelvana Studio
Продолжительность: ~ 00:12:00 серия
Перевод: Дублированный
Файл
Кодек: XviD / AC3
Качество: SATRip
Видео: MPEG4, XviD, 720x400 (16:9), 25.000 fps, 1 700 Kbps (0.236 bit/pixel)
Звук: AC-3, 48.0 KHz, 2 ch, 192 Kbps, CBR
General
Complete name : 01. Рыцарь Майк и ночной страж.avi
Format : AVI
Format/Info : Audio Video Interleave
File size : 164 MiB
Duration : 12mn 1s
Overall bit rate : 1 902 Kbps
Movie name : 01. The Night Time Lookout
Director : SATRip by Thunder
Writing application : VirtualDubMod 1.5.10.3 | www.virtualdub-fr.org || (build 2550/release)
Original source form/Name : Cartoon
Video
ID : 0
Format : MPEG-4 Visual
Format profile : Advanced Simple@L5
Format settings, BVOP : 1
Format settings, QPel : No
Format settings, GMC : No warppoints
Format settings, Matrix : Default (H.263)
Codec ID : XVID
Codec ID/Hint : XviD
Duration : 12mn 1s
Bit rate : 1 625 Kbps
Width : 720 pixels
Height : 400 pixels
Display aspect ratio : 16:9
Frame rate : 25.000 fps
Color space : YUV
Chroma subsampling : 4:2:0
Bit depth : 8 bits
Scan type : Progressive
Compression mode : Lossy
Bits/(Pixel*Frame) : 0.226
Stream size : 140 MiB (85%)
Writing library : XviD 1.2.1 (UTC 2008-12-04)
Audio
ID : 1
Format : AC-3
Format/Info : Audio Coding 3
Mode extension : CM (complete main)
Format settings, Endianness : Big
Codec ID : 2000
Duration : 12mn 1s
Bit rate mode : Constant
Bit rate : 192 Kbps
Channel(s) : 2 channels
Channel positions : Front: L R
Sampling rate : 48.0 KHz
Bit depth : 16 bits
Compression mode : Lossy
Stream size : 16.5 MiB (10%)
Alignment : Split accross interleaves



   Похожие торренты   Торрент   Размер 
В этой теме нет новых непрочитанных сообщений. Рыцарь Майк / Mike the Knight [S01] (2012) SATRip

55 | 57

8.29 ГБ

В этой теме нет новых непрочитанных сообщений. Рыцарь дракона / Звездный рыцарь / El caballero del dragon / Star knight (1985) DVDRip | A

80 | 35

1.45 ГБ

В этой теме нет новых непрочитанных сообщений. Супер Майк / Magic Mike (2012) HDRip | Лицензия

40 | 5

743.54 МБ

В этой теме нет новых непрочитанных сообщений. Супер Майк / Magic Mike (2012) BDRip 1080p

29 | 6

11.88 ГБ

В этой теме нет новых непрочитанных сообщений. Супер Майк / Magic Mike (2012) BDRemux 1080p

4 | 2

23.6 ГБ

В этой теме нет новых непрочитанных сообщений. Супер Майк / Magic Mike (2012) BDRp 1080p | D

13 | 3

8 ГБ

В этой теме нет новых непрочитанных сообщений. Супер Майк / Magic Mike (2012) BDRip-AVC | D | Лицензия

1440 | 32

1.43 ГБ




Вы не можете начинать темы
Вы не можете отвечать на сообщения
Вы не можете редактировать свои сообщения
Вы не можете удалять свои сообщения
Вы не можете добавлять вложения

Перейти:  
Для Мосгорсуда, Роскомнадзора и рекламодателей: mosgorsud-torrent[собачка]yandex.ru
 Вход
ppkBB3cker v.2 © 2008-2014 @ PPK
[ Time : 0.275s | 15 Queries | GZIP : Off ]

Торрент трекер RUTOR.IN, Не можете зайти на rutor.org? Какой новый адрес рутор? Какое зеркало рутор? Не работает rutor.org и зеркала? Тогда наш торрент специально для вас. Rutor.in неофициальное зеркало rutor. В случае если у Вас заблокирован rutor или вдруг Вы не можете на него зайти, то Вы без труда сможете скачать бесплатно и без рекламы последние новинки кино, игр, сериалов и прочего у нас, на Rutor.in. Не нужно использовать прокси, чтобы зайти на рутор, достаточно воспользоваться нашим ресурсом. Все новые фильмы, игры, сериалы, книги и музыка за 2013 и 2014 годы через торрент бесплатно. Скачивайте фильмы в хорошем качестве, игры для пк, xbox, playstation без регистрации. У нас вы найдете новые Зарубежные сериалы и Русские сериалы 2013, 2014, 2015 годов. Оставайтесь с нами, качайте любимые фильмы, игры, сериалы, книги и музыку.