img image001 image001 image001 image001 image001 image001 image001 image001 image001 image001 image001 image001 image001 image001 image001

Planets Sun Sun Sun
Статистика раздачи
Автор: Nickolas3434 | Размер: 4.96 ГБ | Добавлен: 12 июл 2015
Раздают: 302    Качают: 62
Скачать торрент
Скачать торрент
Описание торрента

СообщениеДобавлено: 12 июл 2015 



Название: Ну, погоди! (сериал)
Год выпуска: 1969
Страна: СССР
Жанр: мультфильм, комедия, семейный, приключения
Продолжительность: ~00:09:00
Перевод: Оригинальный

Режиссер: Вячеслав Котёночкин, Юрий Бутырин, Владимир Тарасов

В ролях: Клара Румянова (Заяц, озвучка), Анатолий Папанов (Волк, озвучка), Геннадий Хазанов (озвучка), Владимир Сошальский (Бегемот, озвучка), Игорь Христенко (озвучка)


Описание:
Веселые приключения неразлучной парочки - хулигана Волка и смышленого Зайца. Любимые с детства сцены погонь, ссор и примирений, шутки и мелодии.


Рейтинг

imdb.com: 9.00 (2550)


Качество: BDRip-AVC 60fps
Формат: MKV
Видео кодек: AVC
Аудио кодек:AC3
Видео: AVC, 752x576 (4:3), 3260 kbps, 60 fps, 0,125 bpp
Аудио: русский / AC3 / 1 / 48 kHz / 640 kbps / 16 bit
Навигация по главам: есть



General
Unique ID : 217095934610155673877550129072000791557 (0xA35327F7F1209C96B82475096C6CF405)
Format : Matroska
Format version : Version 4 / Version 2
File size : 273 MiB
Duration : 9mn 34s
Overall bit rate : 3 980 Kbps
Movie name : Tiberiumsun69
Encoded date : UTC 2015-07-07 13:14:48
Writing application : mkvmerge v7.9.0 ('Birds') 64bit
Writing library : libebml v1.3.1 + libmatroska v1.4.2
Attachment : Yes
Video
ID : 1
Format : AVC
Format/Info : Advanced Video Codec
Format profile : High@L4.1
Format settings, CABAC : Yes
Format settings, ReFrames : 4 frames
Codec ID : V_MPEG4/ISO/AVC
Duration : 9mn 34s
Bit rate : 3 261 Kbps
Width : 752 pixels
Height : 576 pixels
Display aspect ratio : 4:3
Frame rate : 60.000 fps
Color space : YUV
Chroma subsampling : 4:2:0
Bit depth : 8 bits
Scan type : Progressive
Bits/(Pixel*Frame) : 0.125
Stream size : 223 MiB (82%)
Title : Tiberiumsun69
Language : English
Default : Yes
Forced : No
Audio
ID : 2
Format : AC-3
Format/Info : Audio Coding 3
Mode extension : CM (complete main)
Codec ID : A_AC3
Duration : 9mn 34s
Bit rate mode : Constant
Bit rate : 640 Kbps
Channel(s) : 1 channel
Channel positions : Front: C
Sampling rate : 48.0 KHz
Bit depth : 16 bits
Compression mode : Lossy
Delay relative to video : 14ms
Stream size : 43.9 MiB (16%)
Title : Оригинал
Language : Russian
Default : No
Forced : No
Menu
00:00:00.000 : en:Chapter 2
00:09:31.670 : en:Chapter 3


Просьба к переливающим на другие сайты, в оформлении указывайте пожалуйста авторство группы



   Похожие торренты   Торрент   Размер 
В этой теме нет новых непрочитанных сообщений. Ну, погоди! (1969-1986) BDRip от HQCLUB

414 | 34

2.72 ГБ

В этой теме нет новых непрочитанных сообщений. Ну, погоди! (1969-1986) BDRip 720p

1019 | 90

5.74 ГБ

В этой теме нет новых непрочитанных сообщений. Ну, погоди! (1969-1986) BDRip-AVC | iPad

324 | 5

3.95 ГБ

В этой теме нет новых непрочитанных сообщений. Ну, погоди! (1969-1986) BDRip 1080p

157 | 15

4.4 ГБ

В этой теме нет новых непрочитанных сообщений. Ну, погоди! [01-16 из 20] (1969-1986) BDRip 720p

102 | 17

7.68 ГБ

В этой теме нет новых непрочитанных сообщений. Ну, погоди! [01-20] (1969–2006) BDRip-AVC, DVDRip-AVC от New-Team

2189 | 286

2.98 ГБ

В этой теме нет новых непрочитанных сообщений. Ну, погоди! [01-20] (1969–2006) BDRip, DVDRip от New-Team

842 | 57

3.15 ГБ




Вы не можете начинать темы
Вы не можете отвечать на сообщения
Вы не можете редактировать свои сообщения
Вы не можете удалять свои сообщения
Вы не можете добавлять вложения

Перейти:  
Для Мосгорсуда, Роскомнадзора и рекламодателей: mosgorsud-torrent[собачка]yandex.ru
 Вход
ppkBB3cker v.2 © 2008-2014 @ PPK
[ Time : 0.030s | 14 Queries | GZIP : Off ]

Торрент трекер RUTOR.IN, Не можете зайти на rutor.org? Какой новый адрес рутор? Какое зеркало рутор? Не работает rutor.org и зеркала? Тогда наш торрент специально для вас. Rutor.in неофициальное зеркало rutor. В случае если у Вас заблокирован rutor или вдруг Вы не можете на него зайти, то Вы без труда сможете скачать бесплатно и без рекламы последние новинки кино, игр, сериалов и прочего у нас, на Rutor.in. Не нужно использовать прокси, чтобы зайти на рутор, достаточно воспользоваться нашим ресурсом. Все новые фильмы, игры, сериалы, книги и музыка за 2013 и 2014 годы через торрент бесплатно. Скачивайте фильмы в хорошем качестве, игры для пк, xbox, playstation без регистрации. У нас вы найдете новые Зарубежные сериалы и Русские сериалы 2013, 2014, 2015 годов. Оставайтесь с нами, качайте любимые фильмы, игры, сериалы, книги и музыку.