img image001 image001 image001 image001 image001 image001 image001 image001 image001 image001 image001 image001 image001 image001 image001

Planets Sun Sun Sun
Статистика раздачи
Автор: Nickolas3434 | Размер: 3.08 ГБ | Добавлен: 11 июл 2015
Раздают: 26    Качают: 11
Скачать торрент
Скачать торрент
Описание торрента

СообщениеДобавлено: 11 июл 2015 

Информация о фильме:
● Название: Удивительные Люди Икс: Неудержимые
● Оригинальное название: Astonishing X-Men: Unstoppable
● Год выхода: 2012
● Жанр: мультфильм, фантастика, боевик
● Режиссер: Джон Кэссадэй
● В ролях: Михаль Фридман, Ева Кристенсен, Эйлин Стивенс, Дэн Грин, Эрика Шредер, Майк Поллок, Грегори Аббей, Марк Томпсон

Описание фильма:
В этой части нам рассказывается о приключении в чужеземном Брикворлде, лидерам которого противостоят Люди Икс. Лидеры Брикворлда стремятся уничтожить Землю, выстрелив в неё огромным снарядом. Здесь так же затронута сюжетная линия Дэйнжера, который запрограммирован не убивать. Призрачной Кошке предстоит проникнуть внутрь снаряда и спасти Землю.

● Страна: США
● Студия: Marvel Knights
● Продолжительность: 01:08:28 (6 серий)
● Перевод: дублированный
Невафильм
Информация о файле:
● Кодек: MPEG-2
● Формат: MKV
● Качество: DVD
● Видео: ~ 5658 kbps, 720x576@1024x576, 25 fps
● Аудио#1 Rus: AC3, 48 kHz, 2 ch, 192 kbps
● Аудио#2 Eng: AC3, 48 kHz, 6 ch, 448 kbps

Релиз от:
За дубляж спасибо Bobropandavar
Общее
Уникальный идентификатор: 236337376642444943017766919082710015633 (0xB1CCEC4E02F139189801D27DE16A1E91)
Полное имя: D:MR_eng_seriesAstonishing X-Men_Unstoppable. s01. avi. DVD-Remux (1024x576)Unstoppable. Part 1A.mkv
Формат: Matroska
Версия формата: Version 4 / Version 2
Размер файла: 493 Мбайт
Продолжительность: 10 м.
Режим общего битрейта: Переменный
Общий поток: 6425 Кбит/сек
Название фильма: Astonishing X-Men: Unstoppable. Part 1A. SHAgroup-SHAmonstra
Дата кодирования: UTC 2015-07-05 15:27:59
Программа кодирования: mkvmerge v6.9.1 ('Blue Panther') 64bit built on Apr 18 2014 18:23:38
Библиотека кодирования: libebml v1.3.0 + libmatroska v1.4.1
Видео
Идентификатор: 1
Формат: MPEG Video
Версия формата: Version 2
Профиль формата: Main@Main
Параметр BVOP формата: Да
Параметр матрицы формата: Выборочная
Параметр GOP формата: M=3, N=12
Format_Settings_PictureStructure: Frame
Идентификатор кодека: V_MPEG2
Идентификатор кодека/Информация: MPEG 1 or 2 Video
Продолжительность: 10 м.
Вид битрейта: Переменный
Битрейт: 5658 Кбит/сек
Максимальный битрейт: 7500 Кбит/сек
Ширина: 720 пикселей
Высота: 576 пикселей
Соотношение сторон: 16:9
Режим частоты кадров: Постоянный
Частота кадров: 25,000 кадров/сек
Стандарт вещания: PAL
Цветовое пространство: YUV
Субдискретизация насыщенности: 4:2:0
Битовая глубина: 8 бит
Тип развёртки: Чересстрочная
Порядок развёртки: Верхнее поле первое
Метод сжатия: С потерями
Бит/(Пиксели*Кадры): 0.546
Временной код первого кадра: 00:59:53:00
Оригинал временного кода: Group of pictures header
Размер потока: 434 Мбайт (88%)
Язык: English
Default: Да
Forced: Нет
Основные цвета: BT.601 PAL
Характеристики трансфера: BT.470 System B, BT.470 System G
Коэффициенты матрицы: BT.601
Аудио #1
Идентификатор: 2
Формат: AC-3
Формат/Информация: Audio Coding 3
Расширение режима: CM (complete main)
Параметр Endianness формата: Big
Идентификатор кодека: A_AC3
Продолжительность: 10 м.
Вид битрейта: Постоянный
Битрейт: 192 Кбит/сек
Каналы: 2 канала
Расположение каналов: Front: L R
Частота: 48,0 КГц
Битовая глубина: 16 бит
Метод сжатия: С потерями
Размер потока: 14,7 Мбайт (3%)
Язык: Russian
Default: Да
Forced: Нет
Аудио #2
Идентификатор: 3
Формат: AC-3
Формат/Информация: Audio Coding 3
Расширение режима: CM (complete main)
Параметр Endianness формата: Big
Идентификатор кодека: A_AC3
Продолжительность: 10 м.
Вид битрейта: Постоянный
Битрейт: 448 Кбит/сек
Каналы: 6 каналов
Расположение каналов: Front: L C R, Side: L R, LFE
Частота: 48,0 КГц
Битовая глубина: 16 бит
Метод сжатия: С потерями
Размер потока: 34,4 Мбайт (7%)
Язык: English
Default: Нет
Forced: Нет
Когда раздача ведётся путём добавления новых серий, при каждом добавлении создётся новый торрент. Чтобы начать докачку новой серии, пользователям необходимо сделать следующее:
(1) остановить скачивание,
(2) удалить старый торрент у себя из клиента (старые серии удалять не надо),
(3) скачать новый торрент и запустить его у себя в клиенте вместо старого, при этом указать клиенту путь в старую папку, куда и должно происходить скачивание новых серий.
Ваш клиент при этом должен произвести хеширование (проверку) старой папки (если не производит сам - помогите ему сделать это), и будет докачивать только те серии, которых у вас ещё нет. Старые серии при этом не удаляются, а продолжают раздаваться!
Eсли вы уже удалили старые серии, то предотвратить повторную закачку старых серий можно, отжав галочку в соответсвующих местах при запуске нового торрента. По возможности, желательно не удалять старые серии как можно дольше, чтобы релизёр не столько продолжал раздавать старые серии, а смог сконцентрироваться на новых.



   Похожие торренты   Торрент   Размер 
В этой теме нет новых непрочитанных сообщений. Удивительные Люди Икс: Неудержимые / Astonishing X-Men: Torn [01x01-06 из XX] (2012) DVDRip | D

90 | 12

1.14 ГБ

В этой теме нет новых непрочитанных сообщений. Удивительные Люди Икс: Битые / Astonishing X-Men: Torn [s01] (2012) DVD-Remux | D

21 | 23

2.64 ГБ

В этой теме нет новых непрочитанных сообщений. Удивительные Люди Икс: Опасные / Astonishing X-Men: Dangerous [s01] (2012) DVD-Remux | D

35 | 18

2.98 ГБ

В этой теме нет новых непрочитанных сообщений. Рыцари Марвел. Удивительные Люди Икс: Одаренные / Marvel Knights. Astonishing X-Men: Gifted [s01] (2009) DVD-Remux | D

89 | 31

3.4 ГБ

В этой теме нет новых непрочитанных сообщений. Удивительные Люди Икс: Опасные / Astonishing X-Men: Dangerous [s01] (2012) DVDRip | D

39 | 6

881.15 МБ

В этой теме нет новых непрочитанных сообщений. Удивительные Люди Икс: Битые / Astonishing X-Men: Torn [S01] (2012) DVDRip | D

28 | 5

892.78 МБ

В этой теме нет новых непрочитанных сообщений. Удивительные Люди Икс: Одаренные / Astonishing X-Men: Gifted [s01] (2009) DVDRip | D

44 | 6

1.01 ГБ




Вы не можете начинать темы
Вы не можете отвечать на сообщения
Вы не можете редактировать свои сообщения
Вы не можете удалять свои сообщения
Вы не можете добавлять вложения

Перейти:  
Для Мосгорсуда, Роскомнадзора и рекламодателей: mosgorsud-torrent[собачка]yandex.ru
 Вход
ppkBB3cker v.2 © 2008-2014 @ PPK
[ Time : 0.048s | 19 Queries | GZIP : Off ]

cron