img image001 image001 image001 image001 image001 image001 image001 image001 image001 image001 image001 image001 image001 image001 image001

Planets Sun Sun Sun
Статистика раздачи
Автор: Nickolas3434 | Размер: 150.17 МБ | Добавлен: 19 июл 2015
Раздают: 54    Качают: 1
Скачать торрент
Скачать торрент
Описание торрента

СообщениеДобавлено: 19 июл 2015 


Информация о фильме
Название: Легенда о Костоломе
Оригинальное название: Legend of the Boneknapper Dragon
Год выхода: 2010
Жанр: Мультфильм, короткометражка, фэнтези
Режиссер: Джон Пуглиси / John Puglisi
В ролях: Джей Барушель, Джерард Батлер, Крэйг Фергюсон, Америка Феррера, Джона Хилл, Кристофер Минц-Плассе, ТиДжей Миллер, Кристен Уиг, Джон Ди Маджио, Кевин Майкл Ричардсон
О фильме:
Иккинг и юные Викинги отправляются в путешествие со своим наставником Плевакой, чтобы помочь ему победить своего заклятого врага — легендарного дракона Костолома.

Страна: США
Продолжительность: 00:16:33
Перевод: Профессиональный (полное дублирование) Невафильм
Файл
Кодек: XviD
Качество: HDRip
Видео: 624x352 (1.77:1), 23.976 fps, XviD build 73 ~1130 kbps avg, 0.21 bit/pixel
Звук: 48 kHz, MPEG Layer 3, 2 ch, ~128.00 kbps avg
Субтитры: Отсутствуют
Семпл
General
Complete name : D:Изготовление рипаЛегенда о Костоломе.2010.HDrip by shkiper.avi
Format : AVI
Format/Info : Audio Video Interleave
File size : 150 MiB
Duration : 16mn 33s
Overall bit rate : 1 268 Kbps
Writing application : VirtualDubMod 1.5.10.3 | www.virtualdub-fr.org || (build 2550/release)
Writing library : VirtualDubMod build 2550/release
Video
ID : 0
Format : MPEG-4 Visual
Format profile : Advanced Simple@L5
Format settings, BVOP : 1
Format settings, QPel : No
Format settings, GMC : No warppoints
Format settings, Matrix : Custom
Codec ID : XVID
Codec ID/Hint : XviD
Duration : 16mn 33s
Bit rate : 1 130 Kbps
Width : 624 pixels
Height : 352 pixels
Display aspect ratio : 16:9
Frame rate : 23.976 fps
Color space : YUV
Chroma subsampling : 4:2:0
Bit depth : 8 bits
Scan type : Progressive
Compression mode : Lossy
Bits/(Pixel*Frame) : 0.215
Stream size : 134 MiB (89%)
Writing library : XviD 73
Audio
ID : 1
Format : MPEG Audio
Format version : Version 1
Format profile : Layer 3
Mode : Joint stereo
Mode extension : MS Stereo
Codec ID : 55
Codec ID/Hint : MP3
Duration : 16mn 33s
Bit rate mode : Constant
Bit rate : 128 Kbps
Channel(s) : 2 channels
Sampling rate : 48.0 KHz
Compression mode : Lossy
Stream size : 15.2 MiB (10%)
Alignment : Aligned on interleaves
Interleave, duration : 42 ms (1.00 video frame)
Interleave, preload duration : 504 ms
Writing library : LAME3.99r
Encoding settings : -m j -V 4 -q 2 -lowpass 17 -b 128

Релиз от:



   Похожие торренты   Торрент   Размер 
В этой теме нет новых непрочитанных сообщений. Легенда о Костоломе / Легенда о Костяном Драконе / Легенда о Костобое / Legend of the Boneknapper Dragon (2010) BDRip от HQCLUB

20 | 33

451.83 МБ

В этой теме нет новых непрочитанных сообщений. Легенда о Костоломе / Легенда о Костяном Драконе / Legend of the Boneknapper Dragon (2010) Blu-Ray Remux 1080p | D, P2, L, L1

34 | 4

3.38 ГБ

В этой теме нет новых непрочитанных сообщений. Легенда о Костоломе / Legend of the BoneKnapper Dragon (2010) BDRip 1080p от MediaClub

96 | 4

1.56 ГБ

В этой теме нет новых непрочитанных сообщений. Легенда о Костоломе / Legend of the BoneKnapper Dragon (2010) BDRip 720p | Невафильм

14 | 2

695.13 МБ

В этой теме нет новых непрочитанных сообщений. Легенда о Костоломе / Legend of the Boneknapper Dragon (2010) BDRip 720p от Leonardo and Scarabey | Невафильм

83 | 12

583.05 МБ

В этой теме нет новых непрочитанных сообщений. Легенда / Legend (2015) HDRip от Шкипер

897 | 51

750.94 МБ

В этой теме нет новых непрочитанных сообщений. Настоящая легенда / True Legend / Su Qi-Er (2010) HDRip

10 | 2

747.66 МБ




Вы не можете начинать темы
Вы не можете отвечать на сообщения
Вы не можете редактировать свои сообщения
Вы не можете удалять свои сообщения
Вы не можете добавлять вложения

Перейти:  
Для Мосгорсуда, Роскомнадзора и рекламодателей: mosgorsud-torrent[собачка]yandex.ru
 Вход
ppkBB3cker v.2 © 2008-2014 @ PPK
[ Time : 0.026s | 14 Queries | GZIP : On ]

Торрент трекер RUTOR.IN, Не можете зайти на rutor.org? Какой новый адрес рутор? Какое зеркало рутор? Не работает rutor.org и зеркала? Тогда наш торрент специально для вас. Rutor.in неофициальное зеркало rutor. В случае если у Вас заблокирован rutor или вдруг Вы не можете на него зайти, то Вы без труда сможете скачать бесплатно и без рекламы последние новинки кино, игр, сериалов и прочего у нас, на Rutor.in. Не нужно использовать прокси, чтобы зайти на рутор, достаточно воспользоваться нашим ресурсом. Все новые фильмы, игры, сериалы, книги и музыка за 2013 и 2014 годы через торрент бесплатно. Скачивайте фильмы в хорошем качестве, игры для пк, xbox, playstation без регистрации. У нас вы найдете новые Зарубежные сериалы и Русские сериалы 2013, 2014, 2015 годов. Оставайтесь с нами, качайте любимые фильмы, игры, сериалы, книги и музыку.