img image001 image001 image001 image001 image001 image001 image001 image001 image001 image001 image001 image001 image001 image001 image001

Planets Sun Sun Sun
Статистика раздачи
Автор: Nickolas3434 | Размер: 14.03 ГБ | Добавлен: 19 июл 2015
Раздают: 341    Качают: 205
Скачать торрент
Скачать торрент
Описание торрента

СообщениеДобавлено: 19 июл 2015 

Информация о фильме:
● Название: Макс Стил
● Оригинальное название: Max Steel
● Год выхода: 2013
● Страна: США
● Студия: FremantleMedia Enterprises, Mattel Entertainment
● Жанр: Мультсериал, фантастика, боевик
● Режиссер: Логан МакФерсон, Майкл Доудинг
● В ролях: Эндрю Френсис, Сэм Винсент, Майкл Добсон, Омари Ньютон, Кэтлин Барр, Брайан Драммонд, Брайан Добсон, Марк Оливер, Николь Оливер, Сара Эдмондсон
● Продолжительность: 52 x ~ 00:22:03
● Перевод: Дублированный

Описание фильма:
16-летний Максвелл «Макс» МакГрэт вливается в новую жизнь после переезда с матерью в небольшом городок Медный Каньон. Однажды Макс узнает, что у него есть способность генерировать Турбо- энергию, самую мощную энергию во Вселенной. Теперь Макс должен присоединиться к Н-Тэк, тайной организации, которую создал его покойный отец Джим МакГрэт. Корпорацию Н-Тэк возглавляет дядя Макса- Феррус. Там Макс встречается с изобретением своего отца- «Сталью», которое поможет ему совладать с Турбо- энергией, которая скрыта в нем. Теперь Максу и Стали предстоит сразиться с Транс-Хьюман Индастриас, во главе с их зловещим лидером Майлсом Дреддом и не дать им захватить галактику.

Информация о файле:
● Кодек: XviD
● Формат: AVI
● Качество: WEB-DLRip, HDTVRip
● Видео: 720x400 (1.80:1), 23.976 fps, XviD MPEG-4 ~1410 kbps avg, 0.20 bit/pixel
● Аудио#1 Rus: 48 kHz, AC3 Dolby Digital, 2/0 (L,R) ch, ~192 kbps
● Аудио#2 Eng: 48 kHz, AC3 Dolby Digital, 2/0 (L,R) ch, ~192 kbps

Семпл HDTVRip
Семпл WEB-DLRip
Релиз от:
Серии 14-26 сезон 2:
качество видео HDTVRip,
нет английской аудио дорожки.
!!! С появлением WEB-DL эти серии будут заменены !!!
Общее
Полное имя: D:MR_eng_seriesMax Steel. 2013. avi. WEB-DLRip (720x400)s01s01e01. Come Together. Part 1.avi
Формат: AVI
Формат/Информация: Audio Video Interleave
Размер файла: 286 Мбайт
Продолжительность: 22 м.
Общий поток: 1809 Кбит/сек
Название фильма: Come Together. Part 1
Программа кодирования: VirtualDubMod 1.5.10.2 (build 2542/release)
Формат оригинала/Имя: Cartoon
Правообладатель: SHAgroup-SHAmonstra
Примечание: for multreactor.ru
Видео
Идентификатор: 0
Формат: MPEG-4 Visual
Профиль формата: Advanced Simple@L5
Параметр BVOP формата: 1
Параметр QPel формата: Нет
Параметр GMC формата: Без точки перехода
Параметр матрицы формата: Default (H.263)
Режим смешивания: Сжатый битовый поток
Идентификатор кодека: XVID
Идентификатор кодека/Подсказка: XviD
Продолжительность: 22 м.
Битрейт: 1411 Кбит/сек
Ширина: 720 пикселей
Высота: 400 пикселей
Соотношение сторон: 16:9
Частота кадров: 23,976 кадра/сек
Цветовое пространство: YUV
Субдискретизация насыщенности: 4:2:0
Битовая глубина: 8 бит
Тип развёртки: Прогрессивная
Метод сжатия: С потерями
Бит/(Пиксели*Кадры): 0.204
Размер потока: 223 Мбайт (78%)
Библиотека кодирования: XviD 1.2.1 (UTC 2008-12-04)
Аудио #1
Идентификатор: 1
Формат: AC-3
Формат/Информация: Audio Coding 3
Расширение режима: CM (complete main)
Параметр Endianness формата: Big
Идентификатор кодека: 2000
Продолжительность: 22 м.
Вид битрейта: Постоянный
Битрейт: 192 Кбит/сек
Каналы: 2 канала
Расположение каналов: Front: L R
Частота: 48,0 КГц
Битовая глубина: 16 бит
Метод сжатия: С потерями
Задержка видео: 1 с. 0 мс.
Размер потока: 30,3 Мбайт (11%)
Выравнивание: Разделение по промежуткам
Продолжительность промежутка: 42 мс. (1,00 видеокадр)
Время предзагрузки промежутка: 500 мс.
Аудио #2
Идентификатор: 2
Формат: AC-3
Формат/Информация: Audio Coding 3
Расширение режима: CM (complete main)
Параметр Endianness формата: Big
Идентификатор кодека: 2000
Продолжительность: 22 м.
Вид битрейта: Постоянный
Битрейт: 192 Кбит/сек
Каналы: 2 канала
Расположение каналов: Front: L R
Частота: 48,0 КГц
Битовая глубина: 16 бит
Метод сжатия: С потерями
Размер потока: 30,3 Мбайт (11%)
Выравнивание: Разделение по промежуткам
Продолжительность промежутка: 42 мс. (1,00 видеокадр)
Время предзагрузки промежутка: 500 мс.
Когда раздача ведётся путём добавления новых серий, при каждом добавлении создётся новый торрент. Чтобы начать докачку новой серии, пользователям необходимо сделать следующее:
(1) остановить скачивание,
(2) удалить старый торрент у себя из клиента (старые серии удалять не надо),
(3) скачать новый торрент и запустить его у себя в клиенте вместо старого, при этом указать клиенту путь в старую папку, куда и должно происходить скачивание новых серий.
Ваш клиент при этом должен произвести хеширование (проверку) старой папки (если не производит сам - помогите ему сделать это), и будет докачивать только те серии, которых у вас ещё нет. Старые серии при этом не удаляются, а продолжают раздаваться!
Eсли вы уже удалили старые серии, то предотвратить повторную закачку старых серий можно, отжав галочку в соответсвующих местах при запуске нового торрента. По возможности, желательно не удалять старые серии как можно дольше, чтобы релизёр не столько продолжал раздавать старые серии, а смог сконцентрироваться на новых.



   Похожие торренты   Торрент   Размер 
В этой теме нет новых непрочитанных сообщений. Макс Стил / Max Steel [01х01-03 из 26] (2013) WEB-DLRip | NewRecords

17 | 6

1.03 ГБ

В этой теме нет новых непрочитанных сообщений. Макс Стил / Max Steel (2016) CAMRip | D

279 | 8

1.37 ГБ

В этой теме нет новых непрочитанных сообщений. Макс Стил / Max Steel (2016) HDRip | iTunes

1576 | 44

1.37 ГБ

В этой теме нет новых непрочитанных сообщений. Макс Стил / Max Steel (2016) WEBRip | Звук с TS

126 | 6

1.37 ГБ

В этой теме нет новых непрочитанных сообщений. Макс Стил / Max Steel (2016) BDRip 1080p | iTunes

357 | 37

10.59 ГБ

В этой теме нет новых непрочитанных сообщений. Макс Стил / Max Steel (2016) BDRip 720p | iTunes

266 | 24

4.75 ГБ

В этой теме нет новых непрочитанных сообщений. Макс Стил / Max Steel (2016) BDRip-AVC от HELLYWOOD | iTunes

182 | 17

1.42 ГБ




Вы не можете начинать темы
Вы не можете отвечать на сообщения
Вы не можете редактировать свои сообщения
Вы не можете удалять свои сообщения
Вы не можете добавлять вложения

Перейти:  
Для Мосгорсуда, Роскомнадзора и рекламодателей: mosgorsud-torrent[собачка]yandex.ru
 Вход
ppkBB3cker v.2 © 2008-2014 @ PPK
[ Time : 0.089s | 15 Queries | GZIP : Off ]
CGP output time : 0.013s | 5 Queries | GZIP : Off

Торрент трекер RUTOR.IN, Не можете зайти на rutor.org? Какой новый адрес рутор? Какое зеркало рутор? Не работает rutor.org и зеркала? Тогда наш торрент специально для вас. Rutor.in неофициальное зеркало rutor. В случае если у Вас заблокирован rutor или вдруг Вы не можете на него зайти, то Вы без труда сможете скачать бесплатно и без рекламы последние новинки кино, игр, сериалов и прочего у нас, на Rutor.in. Не нужно использовать прокси, чтобы зайти на рутор, достаточно воспользоваться нашим ресурсом. Все новые фильмы, игры, сериалы, книги и музыка за 2013 и 2014 годы через торрент бесплатно. Скачивайте фильмы в хорошем качестве, игры для пк, xbox, playstation без регистрации. У нас вы найдете новые Зарубежные сериалы и Русские сериалы 2013, 2014, 2015 годов. Оставайтесь с нами, качайте любимые фильмы, игры, сериалы, книги и музыку.