img image001 image001 image001 image001 image001 image001 image001 image001 image001 image001 image001 image001 image001 image001 image001

Planets Sun Sun Sun
Статистика раздачи
Автор: Nickolas3434 | Размер: 4.4 ГБ | Добавлен: 22 июл 2015
Раздают: 120    Качают: 43
Скачать торрент
Скачать торрент
Описание торрента

СообщениеДобавлено: 22 июл 2015 


Информация о фильме
Название: Симпсоны
Оригинальное название: The Simpsons
Год выхода: 1989-1990
Жанр: мультфильм, комедия
Режиссер: Марк Керклэнд, Стивен Дин Мур, Боб Андерсон
В ролях: Дэн Кастелланета,Джули Кавнер,Нэнси Картрайт,Ярдли Смит,Гарри Ширер,Хэнк Азария,Памела Хейден,Тресс МакНилл,Карл Видерготт,Мэгги Росвэлл
О фильме:
«Симпсоны» (англ. The Simpsons) — самый длинный мультсериал в истории американского телевидения, длящийся 25 сезонов. Первая мини-серия «Good night» была показана в «Шоу Трейси Ульман» 19 апреля 1987 года. Демонстрация полноценных серий мультсериала началась 17 декабря 1989 года на канале FOX. Выпускается «Gracie Films» для кинокомпании «20th Century Fox». Мультсериал в настоящее время известен телезрителям более чем 100 стран.
Это насыщенное сатирой (в том числе социальной) шоу высмеивает многие клише и стереотипы, в частности — стиль жизни «среднестатистического американца», особенности мировых культур в целом, знаменитостей и даже само телевидение и телеканал «Fox»; не стесняется затрагивать такие скользкие вопросы, как политика и религия: в частности, поднимались темы однополых браков, борьбы дарвинистов и креационистов, войны в Ираке.

Страна: США
Студия: FOX
Продолжительность: 13x - 00:23:00
Перевод: профессиональный (многоголосый, закадровый) (Ren-TV)
Файл
Качество: DVDRip-AVC
Видео: 720x544 (4:3), 23.976 fps, x264, ~1877-1900 kbps avg, 0.198-0.202 bit/pixel
Звук: (MVO) 48 kHz, AC3 Dolby Digital, 2/0 (L,R) ch, 192.00 kbps avg
General
Unique ID : 253307887982159766423574760001058762808 (0xBE91531D02FCA20B97BBB5C16631F038)
Complete name : D:InstallМоИ Рипы by aZeR(Mr.El-DoRaDo)The Simpons DVDRip-AVC.by.AEZThe Simpsons S01 (1989-1990) DVDRip-AVC.by.AEZThe.Simpsons.S01.E13.Some.Enchanted.Evening.mkv
Format : Matroska
Format version : Version 4 / Version 2
File size : 347 MiB
Duration : 22mn 55s
Overall bit rate : 2 116 Kbps
Movie name : Симпсоны / The Simpsons [1989 г.] | Рип AEZ
Encoded date : UTC 2015-07-15 15:17:38
Writing application : mkvmerge v7.8.0 ('River Man') 32bit built on Apr 3 2015 12:11:22
Writing library : libebml v1.3.1 + libmatroska v1.4.2
DURATION : 00:22:55.680000000
NUMBER_OF_FRAMES : 42990
NUMBER_OF_BYTES : 33016320
_STATISTICS_WRITING_APP : mkvmerge v7.8.0 ('River Man') 32bit built on Apr 3 2015 12:11:22
_STATISTICS_WRITING_DATE_UT : 2015-07-15 15:17:38
_STATISTICS_TAGS : BPS DURATION NUMBER_OF_FRAMES NUMBER_OF_BYTES
Video
ID : 1
Format : AVC
Format/Info : Advanced Video Codec
Format profile : High@L4.1
Format settings, CABAC : Yes
Format settings, ReFrames : 10 frames
Codec ID : V_MPEG4/ISO/AVC
Duration : 22mn 55s
Bit rate : 1 924 Kbps
Width : 720 pixels
Height : 544 pixels
Display aspect ratio : 4:3
Frame rate mode : Constant
Frame rate : 23.976 fps
Color space : YUV
Chroma subsampling : 4:2:0
Bit depth : 8 bits
Scan type : Progressive
Bits/(Pixel*Frame) : 0.205
Stream size : 309 MiB (89%)
Title : The Simpsons S01 E13: Some Enchanted Evening
Writing library : x264 core 146 r2538 121396c
Encoding settings : cabac=1 / ref=10 / deblock=1:-2:-1 / analyse=0x3:0x133 / me=umh / subme=10 / psy=1 / psy_rd=1.00:0.00 / mixed_ref=1 / me_range=32 / chroma_me=1 / trellis=2 / 8x8dct=1 / cqm=0 / deadzone=21,11 / fast_pskip=1 / chroma_qp_offset=-2 / threads=9 / lookahead_threads=2 / sliced_threads=0 / nr=0 / decimate=1 / interlaced=0 / bluray_compat=0 / constrained_intra=0 / bframes=10 / b_pyramid=2 / b_adapt=2 / b_bias=0 / direct=1 / weightb=1 / open_gop=0 / weightp=2 / keyint=250 / keyint_min=25 / scenecut=40 / intra_refresh=0 / rc_lookahead=40 / rc=2pass / mbtree=0 / bitrate=1924 / ratetol=1.0 / qcomp=0.70 / qpmin=10 / qpmax=51 / qpstep=4 / cplxblur=20.0 / qblur=0.5 / vbv_maxrate=16500 / vbv_bufsize=16000 / nal_hrd=none / filler=0 / ip_ratio=1.40 / pb_ratio=1.30 / aq=1:1.00
Language : English
Default : Yes
Forced : No
Audio
ID : 2
Format : AC-3
Format/Info : Audio Coding 3
Mode extension : CM (complete main)
Format settings, Endianness : Big
Codec ID : A_AC3
Duration : 22mn 55s
Bit rate mode : Constant
Bit rate : 192 Kbps
Channel(s) : 2 channels
Channel positions : Front: L R
Sampling rate : 48.0 KHz
Bit depth : 16 bits
Compression mode : Lossy
Stream size : 31.5 MiB (9%)
Title : Многоголосый закадровый (Ren-TV)
Language : Russian
Default : Yes
Forced : No


Размер: 346 Мб (1/3 СD)
Релиз от: AEZ



   Похожие торренты   Торрент   Размер 
В этой теме нет новых непрочитанных сообщений. Симпсоны / The Simpsons [s01] (1989) DVDRip

35 | 5

3.2 ГБ

В этой теме нет новых непрочитанных сообщений. Симпсоны / The Simpsons [S02] (1990-1991) DVDRip-AVC от AEZ

105 | 25

7.45 ГБ

В этой теме нет новых непрочитанных сообщений. Симпсоны / The Simpsons [S01-20] (1989-2009) DVDRip от i Gold

10 | 20

79.85 ГБ

В этой теме нет новых непрочитанных сообщений. Симпсоны / The Simpsons [s01х01-02] (1989) DVDRip от HitWay | VO-production

2 | 3

622.52 МБ

В этой теме нет новых непрочитанных сообщений. Симпсоны / The Simpsons [S01] (1989) TVRip

6 | 3

1.81 ГБ

В этой теме нет новых непрочитанных сообщений. Симпсоны / The Simpsons [S01] (1989) SATRip

149 | 6

1.91 ГБ

В этой теме нет новых непрочитанных сообщений. Симпсоны / The Simpsons [S02] (1989) SATRip

127 | 3

2.91 ГБ




Вы не можете начинать темы
Вы не можете отвечать на сообщения
Вы не можете редактировать свои сообщения
Вы не можете удалять свои сообщения
Вы не можете добавлять вложения

Перейти:  
Для Мосгорсуда, Роскомнадзора и рекламодателей: mosgorsud-torrent[собачка]yandex.ru
 Вход
ppkBB3cker v.2 © 2008-2014 @ PPK
[ Time : 0.026s | 15 Queries | GZIP : Off ]

Торрент трекер RUTOR.IN, Не можете зайти на rutor.org? Какой новый адрес рутор? Какое зеркало рутор? Не работает rutor.org и зеркала? Тогда наш торрент специально для вас. Rutor.in неофициальное зеркало rutor. В случае если у Вас заблокирован rutor или вдруг Вы не можете на него зайти, то Вы без труда сможете скачать бесплатно и без рекламы последние новинки кино, игр, сериалов и прочего у нас, на Rutor.in. Не нужно использовать прокси, чтобы зайти на рутор, достаточно воспользоваться нашим ресурсом. Все новые фильмы, игры, сериалы, книги и музыка за 2013 и 2014 годы через торрент бесплатно. Скачивайте фильмы в хорошем качестве, игры для пк, xbox, playstation без регистрации. У нас вы найдете новые Зарубежные сериалы и Русские сериалы 2013, 2014, 2015 годов. Оставайтесь с нами, качайте любимые фильмы, игры, сериалы, книги и музыку.
cron