img image001 image001 image001 image001 image001 image001 image001 image001 image001 image001 image001 image001 image001 image001 image001

Planets Sun Sun Sun
Статистика раздачи
Автор: Nickolas3434 | Размер: 4.36 ГБ | Добавлен: 30 июл 2015
Раздают: 232    Качают: 53
Скачать торрент
Скачать торрент
Описание торрента

СообщениеДобавлено: 30 июл 2015 

Страна: СССР
Производство: Союзмультфильм
Жанр: мультфильм, короткометражка
Год выпуска: 1955-1985
Продолжительность: 04:38:24 (23 мультфильма)
Перевод: Не требуется
Cубтитры: нет
Оригинальная аудиодорожка: русский
Режиссер: Михаил Цехановский, Фёдор Хитрук, Борис Дежкин...
Описание: «Союзмультфильм» — крупнейшая в СССР студия мультипликационных фильмов, основанная в Москве 10 июня 1936 года. Студия создана 10 июня 1936 года с названием — «Союздетмультфильм» (из объединения мелких коллективов Мосфильма, Совкино и Межрабпромфильма), а с 20 августа 1937 года ее переименовали в «Союзмультфильм». Хотя приказ о создании студии был подписан начальником Главного Управления кинофотопромышленности, считается, что решение о создании студии мультипликационных фильмов исходило лично от И. В. Сталина. Для студии были выделены помещения закрытых Советской властью храмов: Николая Чудотворца в Новой слободе на Долгоруковской улице (в советское время — Каляевской улице), где находилось производство рисованных фильмов, и Спаса Преображения «что на Песках» в Спасопесковском переулке на Арбате, где располагалось «Творческое объединение кукольных фильмов». Храм на Арбате в 1991 году был возвращен Русской Православной Церкви, а храм на ул. Долгоруковской не возвращен РПЦ до сих пор, хотя решения о необходимости, в принципе, вернуть Церкви отнятые у неё храмы принимались уже более 15 лет назад. В настоящее время здание на Долгоруковской ул. дом 25 находится в федеральной собственности и закреплено на праве хозяйственного ведения за ФГУП "ТПО "Киностудия «Союзмультфильм».
Первый мультфильм, выпущенный студией, назывался «В Африке жарко» (1936 год). С 1937 года начали выпускаться цветные мультфильмы. На студии снято более 1500 мультфильмов.





Источник: DVD5 R5
Качество видео: DVDRip
Формат видео: AVI
Видео: 720x544 (4:3), 25 fps, XviD ~ 2379 kbps avg, 0.260 bit/pixel
Аудио: 48 kHz, Dolby Digital AC3 2.0, 192 kbps
Раздача от:
01. Необыкновенный матч (1955) 0:19:52
02. Старые знакомые (1956) 0:20:19
03. Шайбу! Шайбу! (1964) 0:20:16
04. Приключения запятой и точки (1965) 0:15:15
05. Матч-реванш (1968) 0:19:37
06. Метеор на ринге (1970) 0:18:56
07. Симулянт (1972) 0:06:40
08. Кем быть (1973) 0:08:49
09. Мы с Джеком (1973) 0:09:39
10. Футбольные звезды (1974) 0:17:56
11. Проделкин в школе (1974) 0:09:40
12. Басни Михалкова (1975) 0:09:47
13. Лямзи-тыри-бонди - злой волшебник (1976) 0:09:43
14. Талант и поклонники (1978) 0:09:34
15. Честное слово (1978) 0:09:39
16. На задней парте (1978) 0:09:06
17. Робинзон Кузя (1978) 0:16:54
18. Жадный богач (1980) 0:04:21
19. Как старик корову продавал (1980) 0:05:49
20. На задней парте. 2-й выпуск (1980) 0:09:37
21. Приходи на каток (1981) 0:08:56
22. Волшебная лопата (1984) 0:08:09
23. Ты меня не бойся (1985) 0:09:20

Общее
Полное имя : Sbornik.multfilmov.1955-1985.DVDRip_[New-team]_by_AVP_Studio\03. Шайбу! Шайбу! (1964).avi
Формат : AVI
Формат/Информация : Audio Video Interleave
Размер файла : 426 Мбайт
Продолжительность : 20 м.
Общий поток : 2938 Кбит/сек
Программа кодирования : VirtualDubMod 1.5.10.3 | www.virtualdub-fr.org || (build 2550/release)
Библиотека кодирования : VirtualDubMod build 2550/release
Видео
Идентификатор : 0
Формат : MPEG-4 Visual
Профиль формата : Advanced Simple@L5
Параметр BVOP формата : 1
Параметр QPel формата : Нет
Параметр GMC формата : Без точки перехода
Параметр матрицы формата : Выборочная
Идентификатор кодека : XVID
Идентификатор кодека/Подсказка : XviD
Продолжительность : 20 м.
Битрейт : 2379 Кбит/сек
Ширина : 720 пикселей
Высота : 544 пикселя
Соотношение сторон : 4:3
Частота кадров : 25,000 кадров/сек
Цветовое пространство : YUV
Субдискретизация насыщенности : 4:2:0
Битовая глубина : 8 бит
Тип развёртки : Прогрессивная
Метод сжатия : С потерями
Бит/(Пиксели*Кадры) : 0.260
Размер потока : 397 Мбайт (93%)
Библиотека кодирования : XviD 73
Аудио
Идентификатор : 1
Формат : AC-3
Формат/Информация : Audio Coding 3
Расширение режима : CM (complete main)
Параметр Endianness формата : Big
Идентификатор кодека : 2000
Продолжительность : 20 м.
Вид битрейта : Постоянный
Битрейт : 192 Кбит/сек
Каналы : 2 канала
Расположение каналов : Front: L R
Частота : 48,0 КГц
Метод сжатия : С потерями
Размер потока : 27,8 Мбайт (7%)
Выравнивание : Разделение по промежуткам
Продолжительность промежутка : 40 мс. (1,00 видеокадр)
Время предзагрузки промежутка : 500 мс





   Похожие торренты   Торрент   Размер 
В этой теме нет новых непрочитанных сообщений. Сборник мультфильмов - Союзмультфильм: В гостях у сказки [25 шт] (1955-1985) DVDRip-AVC от New-Team

731 | 77

4.35 ГБ

В этой теме нет новых непрочитанных сообщений. Сборник мультфильмов - Союзмультфильм: В гостях у сказки [21 шт] (1940-1952) DVDRip-AVC от New-Team

182 | 34

4.37 ГБ

В этой теме нет новых непрочитанных сообщений. Сборник мультфильмов - Союзмультфильм: В гостях у сказки [21 шт] (1940-1952) DVDRip от New-Team

241 | 46

4.36 ГБ

В этой теме нет новых непрочитанных сообщений. Сборник мультфильмов - Союзмультфильм: В гостях у сказки [13 шт] (1951-1976) DVDRip-AVC от New-Team

81 | 28

4.37 ГБ

В этой теме нет новых непрочитанных сообщений. Сборник мультфильмов - Союзмультфильм: В гостях у сказки [17 шт] (1947-1991) DVDRip от New-Team

534 | 85

4.29 ГБ

В этой теме нет новых непрочитанных сообщений. Сборник мультфильмов - Союзмультфильм: В гостях у сказки [07 шт] (1954-1991) DVDRip-AVC от New-Team

309 | 16

1.46 ГБ

В этой теме нет новых непрочитанных сообщений. Сборник мультфильмов - Союзмультфильм: В гостях у сказки [07 шт] (1954-1991) DVDRip от New-Team

162 | 22

1.46 ГБ




Вы не можете начинать темы
Вы не можете отвечать на сообщения
Вы не можете редактировать свои сообщения
Вы не можете удалять свои сообщения
Вы не можете добавлять вложения

Перейти:  
Для Мосгорсуда, Роскомнадзора и рекламодателей: mosgorsud-torrent[собачка]yandex.ru
 Вход
ppkBB3cker v.2 © 2008-2014 @ PPK
[ Time : 0.051s | 15 Queries | GZIP : On ]

Торрент трекер RUTOR.IN, Не можете зайти на rutor.org? Какой новый адрес рутор? Какое зеркало рутор? Не работает rutor.org и зеркала? Тогда наш торрент специально для вас. Rutor.in неофициальное зеркало rutor. В случае если у Вас заблокирован rutor или вдруг Вы не можете на него зайти, то Вы без труда сможете скачать бесплатно и без рекламы последние новинки кино, игр, сериалов и прочего у нас, на Rutor.in. Не нужно использовать прокси, чтобы зайти на рутор, достаточно воспользоваться нашим ресурсом. Все новые фильмы, игры, сериалы, книги и музыка за 2013 и 2014 годы через торрент бесплатно. Скачивайте фильмы в хорошем качестве, игры для пк, xbox, playstation без регистрации. У нас вы найдете новые Зарубежные сериалы и Русские сериалы 2013, 2014, 2015 годов. Оставайтесь с нами, качайте любимые фильмы, игры, сериалы, книги и музыку.