img image001 image001 image001 image001 image001 image001 image001 image001 image001 image001 image001 image001 image001 image001 image001

Planets Sun Sun Sun
Статистика раздачи
Автор: Nickolas3434 | Размер: 773.69 МБ | Добавлен: 30 июл 2015
Раздают: 538    Качают: 18
Скачать торрент
Скачать торрент
Описание торрента

СообщениеДобавлено: 30 июл 2015 


Информация о фильме
Название: Часовой мир / Тик-так
Оригинальное название: Tickety Toc
Год выхода: 2012
Жанр: мультфильм, детский
Режиссер: Джил Хун Юнг / Jung Gil-hoon
В ролях: Люк Коули, Брианн Брози, Филлипа Александр, Koda Cursoy, Фелисити Дункан, Элли Фэйрмэн, Джемма Харви, Дэвид Холт, Руби Лав, Льюис Маклауд
О фильме:
Мультипликационный сериал «Тик так» — очень милая и смешная анимация, созданная совместными усилиями аниматоров Южной Кореи и Великобритании, премьера которой состоялась в 2012 году. Дети, посмотрев его, смогут научиться распознавать время и использовать его правильно и разумно. История довольно интересная и нужная для воспитания подрастающего поколения, особенно если учесть, что главный вопрос сюжетной линии отнюдь не детский. Многим взрослым тоже стоит задуматься над этим. Мультипликационный сериал «Тик так» выполнен в хорошем качестве, он очень оригинальный, музыкальный и красивый. Все серии подряд можно смотреть онлайн, они подарят яркие приключения в сказочном мире часового механизма.
Сюжет мультипликационного сериала «Тик-так»: оригинальная сказочная история об обитателях мира, спрятанного за створками обычных часов. В нем есть все – дома для его обитателей, железные дороги, деревья и многое другое. И все они живут по часам. По прошествии каждого часа жители этого мира выходят из часов и сообщают людям о текущем времени, после чего возвращаются обратно в свой скрытый от человеческих глаз мир. Там они не сидят, сложа руки, у них там полно забот и по прописанным правилам времени, они стараются тратить его всегда с пользой, а уже после отдыхать.
Официальный сайт
Страна: Корея Южная, Великобритания
Студия: The Foundation, part of Zodiak Media Group, FunnyFlux Entertainment, High1 Entertainment
Продолжительность: ~00:21:00 серия
Перевод: Дублированный (Nickelodeon)
Файл
Кодек: X264 / AAC
Качество: WEB-DLRip
Видео: AVC, 640x360 (16:9), 25.000 fps, 474 Kbps (0.082 bit/pixel)
Звук: AAC LC, 44.1 KHz, 2 ch, 96.0 Kbps, VBR
General
Complete name : /Тик-так Tickety Toc WEB-DLRip [video]/Тик-Так Tickety Toc (часть 1).mp4
Format : MPEG-4
Format profile : Base Media / Version 2
Codec ID : mp42
File size : 89.6 MiB
Duration : 21mn 52s
Overall bit rate mode : Variable
Overall bit rate : 573 Kbps
Encoded date : UTC 2013-03-25 19:28:01
Tagged date : UTC 2013-03-25 19:28:01
gsst : 0
gstd : 1312298
gssd : B53DB87C6MH1384532226100072
gshh : r3---sn-qp5avbg0-3bqe.googlevideo.com
Video
ID : 1
Format : AVC
Format/Info : Advanced Video Codec
Format profile : Baseline@L3.0
Format settings, CABAC : No
Format settings, ReFrames : 1 frame
Codec ID : avc1
Codec ID/Info : Advanced Video Coding
Duration : 21mn 52s
Bit rate : 474 Kbps
Maximum bit rate : 1 761 Kbps
Width : 640 pixels
Height : 360 pixels
Display aspect ratio : 16:9
Frame rate mode : Constant
Frame rate : 25.000 fps
Color space : YUV
Chroma subsampling : 4:2:0
Bit depth : 8 bits
Scan type : Progressive
Bits/(Pixel*Frame) : 0.082
Stream size : 74.2 MiB (83%)
Tagged date : UTC 2013-03-25 19:30:19
Audio
ID : 2
Format : AAC
Format/Info : Advanced Audio Codec
Format profile : LC
Codec ID : 40
Duration : 21mn 52s
Bit rate mode : Variable
Bit rate : 96.0 Kbps
Maximum bit rate : 103 Kbps
Channel(s) : 2 channels
Channel positions : Front: L R
Sampling rate : 44.1 KHz
Compression mode : Lossy
Stream size : 15.0 MiB (17%)
Title : IsoMedia File Produced by Google, 5-11-2011
Encoded date : UTC 2013-03-25 19:29:10
Tagged date : UTC 2013-03-25 19:30:19



   Похожие торренты   Торрент   Размер 
В этой теме нет новых непрочитанных сообщений. Часовой / The Sentinel (1977) BDRip-AVC от E76 | A

12 | 3

2.52 ГБ

В этой теме нет новых непрочитанных сообщений. Часовой [01] (2016) HDTVRip от GeneralFilm

14 | 8

1.08 ГБ

В этой теме нет новых непрочитанных сообщений. Часовой механизм / Ticker (2001) HDRip от Sem-te | D, P, A

62 | 10

2.3 ГБ

В этой теме нет новых непрочитанных сообщений. Часовой механизм / Ticker (2001) HDRip от Sem-te | D, P, A

49 | 9

2 ГБ

В этой теме нет новых непрочитанных сообщений. Часовой механизм / Ticker (2001) HDRip-AVC от Sem-te | D, P

75 | 14

2.95 ГБ

В этой теме нет новых непрочитанных сообщений. Эстетика. Загадка часовой башни (2011) PC

7 | 6

203.8 МБ

В этой теме нет новых непрочитанных сообщений. Часовой / The Sentinel (1977) HDTVRip 720p | A

8 | 6

2.37 ГБ




Вы не можете начинать темы
Вы не можете отвечать на сообщения
Вы не можете редактировать свои сообщения
Вы не можете удалять свои сообщения
Вы не можете добавлять вложения

Перейти:  
Для Мосгорсуда, Роскомнадзора и рекламодателей: mosgorsud-torrent[собачка]yandex.ru
 Вход
ppkBB3cker v.2 © 2008-2014 @ PPK
[ Time : 1.249s | 16 Queries | GZIP : Off ]

Торрент трекер RUTOR.IN, Не можете зайти на rutor.org? Какой новый адрес рутор? Какое зеркало рутор? Не работает rutor.org и зеркала? Тогда наш торрент специально для вас. Rutor.in неофициальное зеркало rutor. В случае если у Вас заблокирован rutor или вдруг Вы не можете на него зайти, то Вы без труда сможете скачать бесплатно и без рекламы последние новинки кино, игр, сериалов и прочего у нас, на Rutor.in. Не нужно использовать прокси, чтобы зайти на рутор, достаточно воспользоваться нашим ресурсом. Все новые фильмы, игры, сериалы, книги и музыка за 2013 и 2014 годы через торрент бесплатно. Скачивайте фильмы в хорошем качестве, игры для пк, xbox, playstation без регистрации. У нас вы найдете новые Зарубежные сериалы и Русские сериалы 2013, 2014, 2015 годов. Оставайтесь с нами, качайте любимые фильмы, игры, сериалы, книги и музыку.