img image001 image001 image001 image001 image001 image001 image001 image001 image001 image001 image001 image001 image001 image001 image001

Planets Sun Sun Sun
Статистика раздачи
Автор: Nickolas3434 | Размер: 10.27 ГБ | Добавлен: 31 июл 2015
Раздают: 256    Качают: 22
Скачать торрент
Скачать торрент
Описание торрента

СообщениеДобавлено: 31 июл 2015 


Информация о фильме
Название: Конь БоДжек
Оригинальное название: BoJack Horseman
Год выхода: 2015
Жанр: Мультсериал для взрослых, комедия
Режиссер: Рафаэль Боб-Вэксберг
В ролях: Аарон Пол, Уилл Арнетт, Эми Седарис, Мина Нодзи, Кристен Шааль
О фильме:
Сюжет разворачивается вокруг коня по имени БоДжек, который хлещет виски, его бывшей возлюбленной и его друга-человека.

Страна: США
Студия: Netflix
Продолжительность: 00:26:00
Перевод: Профессиональный (многоголосый, закадровый) NewStudio
Файл
Формат: MKV
Кодек: MPEG-4 AVC
Качество: WEB-DL 1080p
Видео: 1920x1080, 23.976 fps, 3400 kbps
Звук: Аудио кодек: AC3
Аудио Rus: 48 kHz, AC3, 6 ch, 384 kbps
Аудио Eng: 48 kHz, AC3, 6 ch, 640 kbps
Релиз от:
Перевод: Юрий Башенкер, Александра Цернант, Григорий Сенин

01. Brand New Couch / Новый диван
02. Yesterdayland / Прошлоеленд
03. S1till Broken / Всё ещё сломан
04. After Party / Афтерпати
05. Chickens / Курочки
06. Higher Love / Высшая любовь
07. Hank After Dark / Ночной Хэнк
08. Let's Find Out / Давайте выясним
09. The Shot / Съемки
10. Yes And / Да, но
11. Escape from L.A. / Побег из Лос-Анджелеса
12. Out to Sea / В море
General
Format : Matroska
Format version : Version 4 / Version 2
File size : 851 MiB
Duration : 26mn 6s
Overall bit rate : 4 558 Kbps
Encoded date : UTC 2015-07-17 23:38:34
Writing application : mkvmerge v8.1.0 ('Psychedelic Postcard') 32bit
Writing library : libebml v1.3.1 + libmatroska v1.4.2
DURATION : 00:26:06.688000000
NUMBER_OF_FRAMES : 48959
NUMBER_OF_BYTES : 75201024
_STATISTICS_WRITING_APP : mkvmerge v8.1.0 ('Psychedelic Postcard') 32bit
_STATISTICS_WRITING_DATE_UTC : 2015-07-17 23:38:34
_STATISTICS_TAGS : BPS DURATION NUMBER_OF_FRAMES NUMBER_OF_BYTES
Video
ID : 1
Format : AVC
Format/Info : Advanced Video Codec
Format profile : High@L4.1
Format settings, CABAC : Yes
Format settings, ReFrames : 4 frames
Codec ID : V_MPEG4/ISO/AVC
Duration : 26mn 6s
Bit rate : 3 443 Kbps
Width : 1 920 pixels
Height : 1 080 pixels
Display aspect ratio : 16:9
Frame rate mode : Constant
Frame rate : 23.976 fps
Color space : YUV
Chroma subsampling : 4:2:0
Bit depth : 8 bits
Scan type : Progressive
Bits/(Pixel*Frame) : 0.069
Stream size : 643 MiB (76%)
Writing library : x264 core 146 r2538 121396c
Encoding settings : cabac=1 / ref=4 / deblock=1:1:1 / analyse=0x3:0x133 / me=umh / subme=11 / psy=1 / psy_rd=0.50:0.00 / mixed_ref=1 / me_range=48 / chroma_me=1 / trellis=2 / 8x8dct=1 / cqm=0 / deadzone=21,11 / fast_pskip=0 / chroma_qp_offset=-2 / threads=12 / lookahead_threads=2 / sliced_threads=0 / nr=0 / decimate=0 / interlaced=0 / bluray_compat=0 / constrained_intra=0 / bframes=12 / b_pyramid=2 / b_adapt=2 / b_bias=0 / direct=3 / weightb=1 / open_gop=0 / weightp=2 / keyint=240 / keyint_min=23 / scenecut=40 / intra_refresh=0 / rc_lookahead=60 / rc=crf / mbtree=1 / crf=17.0 / qcomp=0.60 / qpmin=0 / qpmax=69 / qpstep=4 / ip_ratio=1.40 / aq=1:0.60
Default : Yes
Forced : No
Matrix coefficients : BT.709
Audio #1
ID : 2
Format : AC-3
Format/Info : Audio Coding 3
Mode extension : CM (complete main)
Format settings, Endianness : Big
Codec ID : A_AC3
Duration : 26mn 6s
Bit rate mode : Constant
Bit rate : 384 Kbps
Channel(s) : 6 channels
Channel positions : Front: L C R, Side: L R, LFE
Sampling rate : 48.0 KHz
Bit depth : 16 bits
Compression mode : Lossy
Stream size : 71.7 MiB (8%)
Title : NewStudio.TV
Language : Russian
Default : Yes
Forced : No
Audio #2
ID : 3
Format : AC-3
Format/Info : Audio Coding 3
Mode extension : CM (complete main)
Format settings, Endianness : Big
Codec ID : A_AC3
Duration : 26mn 6s
Bit rate mode : Constant
Bit rate : 640 Kbps
Channel(s) : 6 channels
Channel positions : Front: L C R, Side: L R, LFE
Sampling rate : 48.0 KHz
Bit depth : 16 bits
Compression mode : Lossy
Stream size : 120 MiB (14%)
Language : English
Default : No
Forced : No



   Похожие торренты   Торрент   Размер 
В этой теме нет новых непрочитанных сообщений. Конь БоДжек / BoJack Horseman [02x01-09 из 12] (2015) WEB-DL 1080p | NewStudio

17 | 0

7.82 ГБ

В этой теме нет новых непрочитанных сообщений. Конь БоДжек / BoJack Horseman [S02] (2015) WEB-DLRip | NewStudio

226 | 30

3.52 ГБ

В этой теме нет новых непрочитанных сообщений. Конь БоДжек / BoJack Horseman [02x01-09 из 12] (2015) WEB-DLRip | NewStudio

16 | 3

2.64 ГБ

В этой теме нет новых непрочитанных сообщений. Конь БоДжек / BoJack Horseman [S01] (2014) WEB-DLRip | NewStudio

6 | 6

3.21 ГБ

В этой теме нет новых непрочитанных сообщений. Конь БоДжек / BoJack Horseman [S03] (2016) WEBRip | NewStudio

232 | 64

3.52 ГБ

В этой теме нет новых непрочитанных сообщений. Конь БоДжек / BoJack Horseman [S01] (2014) WEBRip | NewStudio

91 | 29

3.76 ГБ

В этой теме нет новых непрочитанных сообщений. Конь БоДжек / BoJack Horseman [S01] (2014) WEBRip 1080p от MediaClub | P

123 | 328

10.47 ГБ




Вы не можете начинать темы
Вы не можете отвечать на сообщения
Вы не можете редактировать свои сообщения
Вы не можете удалять свои сообщения
Вы не можете добавлять вложения

Перейти:  
Для Мосгорсуда, Роскомнадзора и рекламодателей: mosgorsud-torrent[собачка]yandex.ru
 Вход
ppkBB3cker v.2 © 2008-2014 @ PPK
[ Time : 0.066s | 15 Queries | GZIP : Off ]

cron