img image001 image001 image001 image001 image001 image001 image001 image001 image001 image001 image001 image001 image001 image001 image001

Planets Sun Sun Sun
Статистика раздачи
Автор: Nickolas3434 | Размер: 3.52 ГБ | Добавлен: 31 июл 2015
Раздают: 247    Качают: 30
Скачать торрент
Скачать торрент
Описание торрента

СообщениеДобавлено: 31 июл 2015 


Информация о фильме
Название: Конь БоДжек
Оригинальное название: BoJack Horseman
Год выхода: 2015
Жанр: Мультсериал для взрослых, комедия
Режиссер: Рафаэль Боб-Вэксберг
В ролях: Аарон Пол, Уилл Арнетт, Эми Седарис, Мина Нодзи, Кристен Шааль
О фильме:
Сюжет разворачивается вокруг коня по имени БоДжек, который хлещет виски, его бывшей возлюбленной и его друга-человека.

Страна: США
Студия: Netflix
Продолжительность: 00:26:00
Перевод: Профессиональный (многоголосый, закадровый) NewStudio
Файл
Формат: AVI
Кодек: XviD
Качество: WEB-DLRip
Видео: 720x400, 23.976 fps, 1300 kbps
Звук: Аудио кодек: MP3
Аудио Rus: 48 kHz, MP3, 2 ch, 128 kbps
Аудио Eng: 48 kHz, MP3, 2 ch, 128 kbps
Релиз от:
Перевод: Юрий Башенкер, Александра Цернант, Григорий Сенин

01. Brand New Couch / Новый диван
02. Yesterdayland / Прошлоеленд
03. S1till Broken / Всё ещё сломан
04. After Party / Афтерпати
05. Chickens / Курочки
06. Higher Love / Высшая любовь
07. Hank After Dark / Ночной Хэнк
08. Let's Find Out / Давайте выясним
09. The Shot / Съемки
10. Yes And / Да, но
11. Escape from L.A. / Побег из Лос-Анджелеса
12. Out to Sea / В море
General
Format : AVI
Format/Info : Audio Video Interleave
File size : 300 MiB
Duration : 26mn 32s
Overall bit rate : 1 581 Kbps
Writing application : VirtualDubMod 1.5.10.2 (build 2540/release)
Writing library : VirtualDubMod build 2540/release
Video
ID : 0
Format : MPEG-4 Visual
Format profile : Advanced Simple@L5
Format settings, BVOP : 2
Format settings, QPel : No
Format settings, GMC : No warppoints
Format settings, Matrix : Default (MPEG)
Codec ID : XVID
Codec ID/Hint : XviD
Duration : 26mn 32s
Bit rate : 1 311 Kbps
Width : 720 pixels
Height : 400 pixels
Display aspect ratio : 16:9
Frame rate : 23.976 fps
Color space : YUV
Chroma subsampling : 4:2:0
Bit depth : 8 bits
Scan type : Progressive
Compression mode : Lossy
Bits/(Pixel*Frame) : 0.190
Stream size : 249 MiB (83%)
Writing library : XviD 73
Audio #1
ID : 1
Format : MPEG Audio
Format version : Version 1
Format profile : Layer 3
Mode : Joint stereo
Mode extension : MS Stereo
Codec ID : 55
Codec ID/Hint : MP3
Duration : 26mn 32s
Bit rate mode : Constant
Bit rate : 128 Kbps
Channel(s) : 2 channels
Sampling rate : 48.0 KHz
Compression mode : Lossy
Stream size : 24.3 MiB (8%)
Alignment : Aligned on interleaves
Interleave, duration : 42 ms (1.00 video frame)
Interleave, preload duration : 504 ms
Audio #2
ID : 2
Format : MPEG Audio
Format version : Version 1
Format profile : Layer 3
Mode : Joint stereo
Codec ID : 55
Codec ID/Hint : MP3
Duration : 26mn 32s
Bit rate mode : Constant
Bit rate : 128 Kbps
Channel(s) : 2 channels
Sampling rate : 48.0 KHz
Compression mode : Lossy
Stream size : 24.3 MiB (8%)
Alignment : Aligned on interleaves
Interleave, duration : 42 ms (1.00 video frame)
Interleave, preload duration : 504 ms
Writing library : LAME3.99r
Encoding settings : -m j -V 4 -q 2 -lowpass 17 -b 128



   Похожие торренты   Торрент   Размер 
В этой теме нет новых непрочитанных сообщений. Конь БоДжек / BoJack Horseman [02x01-09 из 12] (2015) WEB-DLRip | NewStudio

36 | 6

2.64 ГБ

В этой теме нет новых непрочитанных сообщений. Конь БоДжек / BoJack Horseman [S02] (2015) WEB-DL 1080p | NewStudio

269 | 37

10.27 ГБ

В этой теме нет новых непрочитанных сообщений. Конь БоДжек / BoJack Horseman [02x01-09 из 12] (2015) WEB-DL 1080p | NewStudio

17 | 0

7.82 ГБ

В этой теме нет новых непрочитанных сообщений. Конь БоДжек / BoJack Horseman [S01] (2014) WEBRip | NewStudio

86 | 28

3.76 ГБ

В этой теме нет новых непрочитанных сообщений. Конь БоДжек / BoJack Horseman [S03] (2016) WEBRip | NewStudio

234 | 66

3.52 ГБ

В этой теме нет новых непрочитанных сообщений. Конь БоДжек / BoJack Horseman [S01] (2014) WEBRip 1080p от MediaClub | P

123 | 328

10.47 ГБ

В этой теме нет новых непрочитанных сообщений. Всадник / The Horseman (2008) BDRip 1080p

1 | 3

8.37 ГБ




Вы не можете начинать темы
Вы не можете отвечать на сообщения
Вы не можете редактировать свои сообщения
Вы не можете удалять свои сообщения
Вы не можете добавлять вложения

Перейти:  
Для Мосгорсуда, Роскомнадзора и рекламодателей: mosgorsud-torrent[собачка]yandex.ru
 Вход
ppkBB3cker v.2 © 2008-2014 @ PPK
[ Time : 0.858s | 13 Queries | GZIP : Off ]
CGP output time : 0.042s | 5 Queries | GZIP : Off

Торрент трекер RUTOR.IN, Не можете зайти на rutor.org? Какой новый адрес рутор? Какое зеркало рутор? Не работает rutor.org и зеркала? Тогда наш торрент специально для вас. Rutor.in неофициальное зеркало rutor. В случае если у Вас заблокирован rutor или вдруг Вы не можете на него зайти, то Вы без труда сможете скачать бесплатно и без рекламы последние новинки кино, игр, сериалов и прочего у нас, на Rutor.in. Не нужно использовать прокси, чтобы зайти на рутор, достаточно воспользоваться нашим ресурсом. Все новые фильмы, игры, сериалы, книги и музыка за 2013 и 2014 годы через торрент бесплатно. Скачивайте фильмы в хорошем качестве, игры для пк, xbox, playstation без регистрации. У нас вы найдете новые Зарубежные сериалы и Русские сериалы 2013, 2014, 2015 годов. Оставайтесь с нами, качайте любимые фильмы, игры, сериалы, книги и музыку.