img image001 image001 image001 image001 image001 image001 image001 image001 image001 image001 image001 image001 image001 image001 image001

Planets Sun Sun Sun
Статистика раздачи
Автор: Nickolas3434 | Размер: 203.42 МБ | Добавлен: 02 авг 2015
Раздают: 39    Качают: 5
Скачать торрент
Скачать торрент
Описание торрента

СообщениеДобавлено: 02 авг 2015 


Информация о фильме:
● Название: Свинки на работе
● Оригинальное название: Piggy Tales: Pigs At Work
● Год выхода: 2015
● Страна: Финляндия
● Студия: Rovio Entertainment
● Жанр: комедия, короткометражка
● Режиссер: Fabien Weibel, Philippe Rolland
● Продолжительность: 16 х ~ 00:01:05
● Перевод: не требуется

Описание фильма:
Новые приключения Свинок на работе.
Информация о файле:
● Кодек: XviD
● Формат: AVI
● Качество: WEBRip
● Видео: 720x400 (1.80:1), 24.000 fps, XviD build 50 ~1409 kbps avg, 0.20 bit/pixel
● Аудио: 48 kHz, AC3 Dolby Digital, 2/0 (L,R) ch, ~192 kbps

Семпл
Релиз от:
01. Nailed It
02. Lunch Break
03. Screw Up
04. Pile Up
05. Step 1
06. Jackhammered
07. Race Nut
08. Predicament In Paint
09. Get The Hammer
10. Fabulous Fluke
11. Magnetic Appeal
12. Porkatron
13. Grand Opening
14. Lights Out
15. Tipping Point
16. All Geared Up
Общее
Полное имя: D:MR_eng_seriesPiggy Tales_Pigs At Work. s01. 2015. WEBRip (720x400)s01e01. Nailed It.avi
Формат: AVI
Формат/Информация: Audio Video Interleave
Размер файла: 12,1 Мбайт
Продолжительность: 1 м. 3 с.
Общий поток: 1612 Кбит/сек
Название фильма: s01e01. Nailed It
Программа кодирования: VirtualDubMod 1.5.10.3 | www.virtualdub-fr.org || (build 2550/release) VirtualDubMod build 2550/release
Примечание: SHAgroup-SHAmonstra
Видео
Идентификатор: 0
Формат: MPEG-4 Visual
Профиль формата: Advanced Simple@L5
Параметр BVOP формата: 1
Параметр QPel формата: Нет
Параметр GMC формата: Без точки перехода
Параметр матрицы формата: Default (H.263)
Идентификатор кодека: XVID
Идентификатор кодека/Подсказка: XviD
Продолжительность: 1 м. 3 с.
Битрейт: 1410 Кбит/сек
Ширина: 720 пикселей
Высота: 400 пикселей
Соотношение сторон: 16:9
Частота кадров: 24,000 кадра/сек
Цветовое пространство: YUV
Субдискретизация насыщенности: 4:2:0
Битовая глубина: 8 бит
Тип развёртки: Прогрессивная
Метод сжатия: С потерями
Бит/(Пиксели*Кадры): 0.204
Размер потока: 10,6 Мбайт (87%)
Библиотека кодирования: XviD 1.2.1 (UTC 2008-12-04)
Аудио
Идентификатор: 1
Формат: AC-3
Формат/Информация: Audio Coding 3
Расширение режима: CM (complete main)
Параметр Endianness формата: Big
Идентификатор кодека: 2000
Продолжительность: 1 м. 3 с.
Вид битрейта: Постоянный
Битрейт: 192 Кбит/сек
Каналы: 2 канала
Расположение каналов: Front: L R
Частота: 48,0 КГц
Битовая глубина: 16 бит
Метод сжатия: С потерями
Размер потока: 1,44 Мбайт (12%)
Выравнивание: Разделение по промежуткам
Продолжительность промежутка: 42 мс. (1,01 видеокадр)
Время предзагрузки промежутка: 500 мс.
Язык: Не определен
Когда раздача ведётся путём добавления новых серий, при каждом добавлении создётся новый торрент. Чтобы начать докачку новой серии, пользователям необходимо сделать следующее:
(1) остановить скачивание,
(2) удалить старый торрент у себя из клиента (старые серии удалять не надо),
(3) скачать новый торрент и запустить его у себя в клиенте вместо старого, при этом указать клиенту путь в старую папку, куда и должно происходить скачивание новых серий.
Ваш клиент при этом должен произвести хеширование (проверку) старой папки (если не производит сам - помогите ему сделать это), и будет докачивать только те серии, которых у вас ещё нет. Старые серии при этом не удаляются, а продолжают раздаваться!
Eсли вы уже удалили старые серии, то предотвратить повторную закачку старых серий можно, отжав галочку в соответсвующих местах при запуске нового торрента. По возможности, желательно не удалять старые серии как можно дольше, чтобы релизёр не столько продолжал раздавать старые серии, а смог сконцентрироваться на новых.



   Похожие торренты   Торрент   Размер 
В этой теме нет новых непрочитанных сообщений. Свинки на работе / Piggy Tales: Pigs At Work [01х01-22] (2015) WEBRip

49 | 5

286.56 МБ

В этой теме нет новых непрочитанных сообщений. Свинки на работе / Piggy Tales: Pigs At Work [01х01-13] (2015) WEBRip

56 | 6

163.82 МБ

В этой теме нет новых непрочитанных сообщений. Свинки на работе / Piggy Tales: Pigs At Work [01х01-14] (2015) WEBRip

24 | 0

177.68 МБ

В этой теме нет новых непрочитанных сообщений. Свинки на работе / Piggy Tales: Pigs At Work [01х01-24] (2015) WEBRip

86 | 31

309.63 МБ

В этой теме нет новых непрочитанных сообщений. Свинки на работе / Piggy Tales: Pigs At Work [01х01-15] (2015) WEBRip

21 | 6

190.71 МБ

В этой теме нет новых непрочитанных сообщений. Свинки на работе / Piggy Tales: Pigs At Work [01х01-21] (2015) WEBRip

17 | 5

272.7 МБ

В этой теме нет новых непрочитанных сообщений. Свинки на работе / Piggy Tales: Pigs At Work [01х01-20] (2015) WEBRip

15 | 1

256.3 МБ




Вы не можете начинать темы
Вы не можете отвечать на сообщения
Вы не можете редактировать свои сообщения
Вы не можете удалять свои сообщения
Вы не можете добавлять вложения

Перейти:  
Для Мосгорсуда, Роскомнадзора и рекламодателей: mosgorsud-torrent[собачка]yandex.ru
 Вход
ppkBB3cker v.2 © 2008-2014 @ PPK
[ Time : 0.027s | 16 Queries | GZIP : Off ]

Торрент трекер RUTOR.IN, Не можете зайти на rutor.org? Какой новый адрес рутор? Какое зеркало рутор? Не работает rutor.org и зеркала? Тогда наш торрент специально для вас. Rutor.in неофициальное зеркало rutor. В случае если у Вас заблокирован rutor или вдруг Вы не можете на него зайти, то Вы без труда сможете скачать бесплатно и без рекламы последние новинки кино, игр, сериалов и прочего у нас, на Rutor.in. Не нужно использовать прокси, чтобы зайти на рутор, достаточно воспользоваться нашим ресурсом. Все новые фильмы, игры, сериалы, книги и музыка за 2013 и 2014 годы через торрент бесплатно. Скачивайте фильмы в хорошем качестве, игры для пк, xbox, playstation без регистрации. У нас вы найдете новые Зарубежные сериалы и Русские сериалы 2013, 2014, 2015 годов. Оставайтесь с нами, качайте любимые фильмы, игры, сериалы, книги и музыку.