img image001 image001 image001 image001 image001 image001 image001 image001 image001 image001 image001 image001 image001 image001 image001

Planets Sun Sun Sun
Статистика раздачи
Автор: Nickolas3434 | Размер: 7.45 ГБ | Добавлен: 06 авг 2015
Раздают: 105    Качают: 25
Скачать торрент
Скачать торрент
Описание торрента

СообщениеДобавлено: 06 авг 2015 


Информация о фильме
Название: Симпсоны
Оригинальное название: The Simpsons
Год выхода: 1990-1991
Жанр: мультфильм, комедия
Режиссер: Марк Керклэнд, Стивен Дин Мур, Боб Андерсон
В ролях: Дэн Кастелланета,Джули Кавнер,Нэнси Картрайт,Ярдли Смит,Гарри Ширер,Хэнк Азария,Памела Хейден,Тресс МакНилл,Карл Видерготт,Мэгги Росвэлл
О фильме:
«Симпсоны» (англ. The Simpsons) — самый длинный мультсериал в истории американского телевидения, длящийся 25 сезонов. Первая мини-серия «Good night» была показана в «Шоу Трейси Ульман» 19 апреля 1987 года. Демонстрация полноценных серий мультсериала началась 17 декабря 1989 года на канале FOX. Выпускается «Gracie Films» для кинокомпании «20th Century Fox». Мультсериал в настоящее время известен телезрителям более чем 100 стран.
Это насыщенное сатирой (в том числе социальной) шоу высмеивает многие клише и стереотипы, в частности — стиль жизни «среднестатистического американца», особенности мировых культур в целом, знаменитостей и даже само телевидение и телеканал «Fox»; не стесняется затрагивать такие скользкие вопросы, как политика и религия: в частности, поднимались темы однополых браков, борьбы дарвинистов и креационистов, войны в Ираке.

Страна: США
Студия: FOX
Продолжительность: 22x - 00:23:00
Перевод: профессиональный (многоголосый, закадровый) (Ren-TV)
Файл
Качество: DVDRip-AVC
Видео: 720x544-720х522 (4:3), 23.976-29.970 fps, x264, ~1850-1905 kbps avg, 0.159-0.204 bit/pixel
Звук: (MVO) 48 kHz, AC3 Dolby Digital, 2/0 (L,R) ch, 192.00 kbps avg
General
Unique ID : 233554408473205189795409261332978829415 (0xAFB4F161626DE7EDADDFA95E592D8867)
Complete name : D:InstallМоИ Рипы by aZeR(Mr.El-DoRaDo)The Simpons DVDRip-AVC.by.AEZThe Simpsons S02 (1990-1991) DVDRip-AVC.by.AEZThe.Simpsons.S02.E01.Bart.Gets.an.F.mkv
Format : Matroska
Format version : Version 4 / Version 2
File size : 347 MiB
Duration : 23mn 10s
Overall bit rate : 2 094 Kbps
Movie name : Симпсоны / The Simpsons [1990 г.] | Рип AEZ
Encoded date : UTC 2015-07-31 13:24:31
Writing application : mkvmerge v8.2.0 ('World of Adventure') 64bit
Writing library : libebml v1.3.1 + libmatroska v1.4.2
DURATION : 00:23:10.208000000
NUMBER_OF_FRAMES : 43444
NUMBER_OF_BYTES : 33364992
_STATISTICS_WRITING_APP : mkvmerge v8.2.0 ('World of Adventure') 64bit
_STATISTICS_WRITING_DATE_UT : 2015-07-31 13:24:31
_STATISTICS_TAGS : BPS DURATION NUMBER_OF_FRAMES NUMBER_OF_BYTES
Video
ID : 1
Format : AVC
Format/Info : Advanced Video Codec
Format profile : High@L4.1
Format settings, CABAC : Yes
Format settings, ReFrames : 10 frames
Codec ID : V_MPEG4/ISO/AVC
Duration : 23mn 10s
Bit rate : 1 901 Kbps
Width : 720 pixels
Height : 544 pixels
Display aspect ratio : 4:3
Frame rate mode : Constant
Frame rate : 23.976 fps
Color space : YUV
Chroma subsampling : 4:2:0
Bit depth : 8 bits
Scan type : Progressive
Bits/(Pixel*Frame) : 0.202
Stream size : 308 MiB (89%)
Title : The Simpsons S02 E01: Bart Gets an F
Writing library : x264 core 146 r2538 121396c
Encoding settings : cabac=1 / ref=10 / deblock=1:-2:-1 / analyse=0x3:0x133 / me=umh / subme=10 / psy=1 / psy_rd=1.00:0.00 / mixed_ref=1 / me_range=32 / chroma_me=1 / trellis=2 / 8x8dct=1 / cqm=0 / deadzone=21,11 / fast_pskip=1 / chroma_qp_offset=-2 / threads=9 / lookahead_threads=2 / sliced_threads=0 / nr=0 / decimate=1 / interlaced=0 / bluray_compat=0 / constrained_intra=0 / bframes=10 / b_pyramid=2 / b_adapt=2 / b_bias=0 / direct=1 / weightb=1 / open_gop=0 / weightp=2 / keyint=250 / keyint_min=25 / scenecut=40 / intra_refresh=0 / rc_lookahead=40 / rc=2pass / mbtree=0 / bitrate=1901 / ratetol=1.0 / qcomp=0.70 / qpmin=10 / qpmax=51 / qpstep=4 / cplxblur=20.0 / qblur=0.5 / vbv_maxrate=16500 / vbv_bufsize=16000 / nal_hrd=none / filler=0 / ip_ratio=1.40 / pb_ratio=1.30 / aq=1:1.00
Language : English
Default : Yes
Forced : No
Audio
ID : 2
Format : AC-3
Format/Info : Audio Coding 3
Mode extension : CM (complete main)
Format settings, Endianness : Big
Codec ID : A_AC3
Duration : 23mn 10s
Bit rate mode : Constant
Bit rate : 192 Kbps
Channel(s) : 2 channels
Channel positions : Front: L R
Sampling rate : 48.0 KHz
Bit depth : 16 bits
Compression mode : Lossy
Stream size : 31.8 MiB (9%)
Title : Многоголосый закадровый (Ren-TV)
Language : Russian
Default : Yes
Forced : No

General
Unique ID : 200644905607957710805318004059560299368 (0x96F2CD9DDAA2E07DA5AEBC37E16D4B68)
Complete name : D:InstallМоИ Рипы by aZeR(Mr.El-DoRaDo)The Simpons DVDRip-AVC.by.AEZThe Simpsons S02 (1990-1991) DVDRip-AVC.by.AEZThe.Simpsons.S02.E11.One.Fish.Two.Fish.Blowfish.Blue Fish.mkv
Format : Matroska
Format version : Version 4 / Version 2
File size : 347 MiB
Duration : 23mn 12s
Overall bit rate : 2 092 Kbps
Movie name : Симпсоны / The Simpsons [1991 г.] | Рип AEZ
Encoded date : UTC 2015-08-03 18:06:56
Writing application : mkvmerge v8.2.0 ('World of Adventure') 64bit
Writing library : libebml v1.3.1 + libmatroska v1.4.2
DURATION : 00:23:12.512000000
NUMBER_OF_FRAMES : 43516
NUMBER_OF_BYTES : 33420288
_STATISTICS_WRITING_APP : mkvmerge v8.2.0 ('World of Adventure') 64bit
_STATISTICS_WRITING_DATE_UT : 2015-08-03 18:06:56
_STATISTICS_TAGS : BPS DURATION NUMBER_OF_FRAMES NUMBER_OF_BYTES
Video
ID : 1
Format : AVC
Format/Info : Advanced Video Codec
Format profile : High@L4.1
Format settings, CABAC : Yes
Format settings, ReFrames : 10 frames
Codec ID : V_MPEG4/ISO/AVC
Duration : 23mn 12s
Bit rate : 1 898 Kbps
Width : 720 pixels
Height : 552 pixels
Display aspect ratio : 4:3
Frame rate mode : Constant
Frame rate : 29.970 fps
Color space : YUV
Chroma subsampling : 4:2:0
Bit depth : 8 bits
Scan type : Progressive
Bits/(Pixel*Frame) : 0.159
Stream size : 308 MiB (89%)
Title : The Simpsons S02 E11: One Fish, Two Fish, Blowfish, Blue Fish
Writing library : x264 core 146 r2538 121396c
Encoding settings : cabac=1 / ref=10 / deblock=1:-2:-1 / analyse=0x3:0x133 / me=umh / subme=10 / psy=1 / psy_rd=1.00:0.00 / mixed_ref=1 / me_range=32 / chroma_me=1 / trellis=2 / 8x8dct=1 / cqm=0 / deadzone=21,11 / fast_pskip=1 / chroma_qp_offset=-2 / threads=9 / lookahead_threads=2 / sliced_threads=0 / nr=0 / decimate=1 / interlaced=0 / bluray_compat=0 / constrained_intra=0 / bframes=10 / b_pyramid=2 / b_adapt=2 / b_bias=0 / direct=1 / weightb=1 / open_gop=0 / weightp=2 / keyint=250 / keyint_min=25 / scenecut=40 / intra_refresh=0 / rc_lookahead=40 / rc=2pass / mbtree=0 / bitrate=1898 / ratetol=1.0 / qcomp=0.70 / qpmin=10 / qpmax=51 / qpstep=4 / cplxblur=20.0 / qblur=0.5 / vbv_maxrate=16500 / vbv_bufsize=16000 / nal_hrd=none / filler=0 / ip_ratio=1.40 / pb_ratio=1.30 / aq=1:1.00
Language : English
Default : Yes
Forced : No
Color primaries : BT.601 NTSC
Transfer characteristics : BT.709
Matrix coefficients : BT.601
Color range : Limited
Audio
ID : 2
Format : AC-3
Format/Info : Audio Coding 3
Mode extension : CM (complete main)
Format settings, Endianness : Big
Codec ID : A_AC3
Duration : 23mn 12s
Bit rate mode : Constant
Bit rate : 192 Kbps
Channel(s) : 2 channels
Channel positions : Front: L R
Sampling rate : 48.0 KHz
Bit depth : 16 bits
Compression mode : Lossy
Stream size : 31.9 MiB (9%)
Title : Многоголосый закадровый (Ren-TV)
Language : Russian
Default : Yes
Forced : No


Автор рипа: AEZ



   Похожие торренты   Торрент   Размер 
В этой теме нет новых непрочитанных сообщений. Симпсоны / The Simpsons [S03] (1991-1992) DVDRip-AVC от AEZ

88 | 30

8.13 ГБ

В этой теме нет новых непрочитанных сообщений. Симпсоны / The Simpsons [S01] (1989-1990) DVDRip-AVC от AEZ

120 | 43

4.4 ГБ

В этой теме нет новых непрочитанных сообщений. Симпсоны / The Simpsons [S02] (1990) TVRip

7 | 4

3 ГБ

В этой теме нет новых непрочитанных сообщений. Симпсоны: Хеллоуин / The Simpsons: Halloween Edition [I-XX] (1990-2009) SATRip

100 | 23

3.51 ГБ

В этой теме нет новых непрочитанных сообщений. Симпсоны / The Simpsons [s01] (1989) DVDRip

35 | 5

3.2 ГБ

В этой теме нет новых непрочитанных сообщений. Симпсоны / The Simpsons [S04] (1992-1993) DVDRip-AVC от AEZ

66 | 19

7.46 ГБ

В этой теме нет новых непрочитанных сообщений. Симпсоны / The Simpsons [S06] (1994-1995) DVDRip-AVC от AEZ

20 | 19

8.44 ГБ




Вы не можете начинать темы
Вы не можете отвечать на сообщения
Вы не можете редактировать свои сообщения
Вы не можете удалять свои сообщения
Вы не можете добавлять вложения

Перейти:  
Для Мосгорсуда, Роскомнадзора и рекламодателей: mosgorsud-torrent[собачка]yandex.ru
 Вход
ppkBB3cker v.2 © 2008-2014 @ PPK
[ Time : 0.043s | 14 Queries | GZIP : On ]

Торрент трекер RUTOR.IN, Не можете зайти на rutor.org? Какой новый адрес рутор? Какое зеркало рутор? Не работает rutor.org и зеркала? Тогда наш торрент специально для вас. Rutor.in неофициальное зеркало rutor. В случае если у Вас заблокирован rutor или вдруг Вы не можете на него зайти, то Вы без труда сможете скачать бесплатно и без рекламы последние новинки кино, игр, сериалов и прочего у нас, на Rutor.in. Не нужно использовать прокси, чтобы зайти на рутор, достаточно воспользоваться нашим ресурсом. Все новые фильмы, игры, сериалы, книги и музыка за 2013 и 2014 годы через торрент бесплатно. Скачивайте фильмы в хорошем качестве, игры для пк, xbox, playstation без регистрации. У нас вы найдете новые Зарубежные сериалы и Русские сериалы 2013, 2014, 2015 годов. Оставайтесь с нами, качайте любимые фильмы, игры, сериалы, книги и музыку.