img image001 image001 image001 image001 image001 image001 image001 image001 image001 image001 image001 image001 image001 image001 image001

Planets Sun Sun Sun
Статистика раздачи
Автор: Nickolas3434 | Размер: 559.64 МБ | Добавлен: 07 авг 2015
Раздают: 166    Качают: 5
Скачать торрент
Скачать торрент
Описание торрента

СообщениеДобавлено: 07 авг 2015 


Информация о фильме
Название: Место на метле
Оригинальное название: Room on the Broom
Страна: Великобритания
Год выхода: 2012
Жанр: мультфильм, короткометражка, семейный
Режиссер: Ян Лахауэр / Jan Lachauer, Макс Лэнг / Max Lang
В ролях: Саймон Пегг, Джиллиан Андерсон, Роб Брайдон, Тимоти Сполл, Мартин Клунес, Салли Хокинс, Дэвид Уоллиамс
О фильме: Это сказка о доброй ведьме, которая, несмотря на недовольство ее кота, заводила новых друзей и брала их с собой в полет на волшебной метле, на которой едва хватало места для нее с котом. Но однажды метла не выдержала и сломалась, да еще в самый неподходящий момент, когда по пятам их настигал злой дракон. Что стало с ведьмой? Куда подевались все её друзья? Чем все закончилось? Об этом расскажет сказка о настоящей дружбе, которая без всякого волшебства способна творить чудеса!

Продолжительность: 00:26:28
Перевод: Любительский (двухголосый, закадровый) Компания АнВад
Субтитры: (внешние, *srt): русские (adamovna), английские
Файл
Формат: AVI
Качество: BDRip [by rs.bandito]
Видео: 720x400 (1.80:1), 23.976 fps, XviD build 73 ~2045 kbps avg, 0.30 bit/pixel
Аудио #1: русский: 48 kHz, AC3 Dolby Digital, 3/2 (L,C,R,l,r) + LFE ch, ~448.00 kbps avg | Компания АнВад |
Аудио #2: английский: 48 kHz, AC3 Dolby Digital, 3/2 (L,C,R,l,r) + LFE ch, ~448.00 kbps avg | Оригинал |
Исходник: BDRemux 1080p | Автор рипа: | Семпл
Общее
Полное имя : Room on the Broom BDRip / Room_on_the_Broom_BDRip.avi
Формат : AVI
Формат/Информация : Audio Video Interleave
Размер файла : 560 Мбайт
Продолжительность : 26 м.
Общий поток : 2955 Кбит/сек
Название фильма : Room on the Broom [ripped by domin8]
Жанр : Child's
Программа кодирования : VirtualDubMod 1.5.10.3 | www.virtualdub-fr.org || (build 2550/release)
Формат оригинала/Имя : Cartoon
Видео
Идентификатор : 0
Формат : MPEG-4 Visual
Профиль формата : Advanced Simple@L5
Параметр BVOP формата : 1
Параметр QPel формата : Нет
Параметр GMC формата : Без точки перехода
Параметр матрицы формата : Выборочная
Идентификатор кодека : XVID
Идентификатор кодека/Подсказка : XviD
Продолжительность : 26 м.
Битрейт : 2045 Кбит/сек
Ширина : 720 пикс.
Высота : 400 пикс.
Соотношение сторон : 16:9
Частота кадров : 23,976 кадр/сек
Цветовое пространство : YUV
Подвыборка цветности : 4:2:0
Битовая глубина : 8 бит
Тип развёртки : Прогрессивная
Метод сжатия : С потерями
Бит/(Пиксели*Кадры) : 0.296
Размер потока : 387 Мбайт (69%)
Библиотека кодирования : XviD 73
Аудио #1
Идентификатор : 1
Формат : AC-3
Формат/Информация : Audio Coding 3
Расширение режима : CM (complete main)
Идентификатор кодека : 2000
Продолжительность : 26 м.
Вид битрейта : Постоянный
Битрейт : 448 Кбит/сек
Канал(ы) : 6 канала(ов)
Расположение каналов : Front: L C R, Side: L R, LFE
Частота : 48,0 КГц
Битовая глубина : 16 бит
Метод сжатия : С потерями
Размер потока : 84,8 Мбайт (15%)
Выравнивание : Разделение по промежуткам
Продолжительность промежутка : 42 мс. (1,00 видеокадр)
Время предзагрузки промежутка : 500 ms
Заголовок : Russian
Аудио #2
Идентификатор : 2
Формат : AC-3
Формат/Информация : Audio Coding 3
Расширение режима : CM (complete main)
Идентификатор кодека : 2000
Продолжительность : 26 м.
Вид битрейта : Постоянный
Битрейт : 448 Кбит/сек
Канал(ы) : 6 канала(ов)
Расположение каналов : Front: L C R, Side: L R, LFE
Частота : 48,0 КГц
Битовая глубина : 16 бит
Метод сжатия : С потерями
Размер потока : 84,8 Мбайт (15%)
Выравнивание : Разделение по промежуткам
Продолжительность промежутка : 42 мс. (1,00 видеокадр)
Время предзагрузки промежутка : 500 ms
Заголовок : English





   Похожие торренты   Торрент   Размер 
В этой теме нет новых непрочитанных сообщений. Место на метле / Room on the Broom (2012) BDRip от rs.bandito | L2

171 | 9

360.08 МБ

В этой теме нет новых непрочитанных сообщений. Место на метле / Room on the Broom (2012) BDRip 1080p от Leonardo and Scarabey

325 | 16

1.38 ГБ

В этой теме нет новых непрочитанных сообщений. Место на метле : Верхом на помеле / Room on the Broom (2012) WEB-DL 720 от SuperMin

195 | 40

647.63 МБ

В этой теме нет новых непрочитанных сообщений. ХХХ Летние Олимпийские Игры. Дзюдо. За выход на матч за 3-е место. Полуфинал. Матчи за 3-е место. Мужчины до 100 кг Женщины до 78 кг (2012) IPTV

1 | 2

2.61 ГБ

В этой теме нет новых непрочитанных сообщений. Испытание свадьбой / Jumping the Broom (2011) BDRip 1080p

1 | 1

9.8 ГБ

В этой теме нет новых непрочитанных сообщений. Испытание свадьбой / Jumping the Broom (2011) BDRip 720p

3 | 30

6.35 ГБ

В этой теме нет новых непрочитанных сообщений. Меню / Feast (2014) BDRip от rs.bandito | D

117 | 4

129.64 МБ




Вы не можете начинать темы
Вы не можете отвечать на сообщения
Вы не можете редактировать свои сообщения
Вы не можете удалять свои сообщения
Вы не можете добавлять вложения

Перейти:  
Для Мосгорсуда, Роскомнадзора и рекламодателей: mosgorsud-torrent[собачка]yandex.ru
 Вход
ppkBB3cker v.2 © 2008-2014 @ PPK
[ Time : 2.362s | 14 Queries | GZIP : Off ]

Торрент трекер RUTOR.IN, Не можете зайти на rutor.org? Какой новый адрес рутор? Какое зеркало рутор? Не работает rutor.org и зеркала? Тогда наш торрент специально для вас. Rutor.in неофициальное зеркало rutor. В случае если у Вас заблокирован rutor или вдруг Вы не можете на него зайти, то Вы без труда сможете скачать бесплатно и без рекламы последние новинки кино, игр, сериалов и прочего у нас, на Rutor.in. Не нужно использовать прокси, чтобы зайти на рутор, достаточно воспользоваться нашим ресурсом. Все новые фильмы, игры, сериалы, книги и музыка за 2013 и 2014 годы через торрент бесплатно. Скачивайте фильмы в хорошем качестве, игры для пк, xbox, playstation без регистрации. У нас вы найдете новые Зарубежные сериалы и Русские сериалы 2013, 2014, 2015 годов. Оставайтесь с нами, качайте любимые фильмы, игры, сериалы, книги и музыку.