img image001 image001 image001 image001 image001 image001 image001 image001 image001 image001 image001 image001 image001 image001 image001

Planets Sun Sun Sun
Статистика раздачи
Автор: Nickolas3434 | Размер: 744.4 МБ | Добавлен: 09 авг 2015
Раздают: 68    Качают: 12
Скачать торрент
Скачать торрент
Описание торрента

СообщениеДобавлено: 09 авг 2015 

Страна: СССР
Производство: Союз мультфильм
Жанр: мультфильм
Год выпуска: 1951
Продолжительность: 00:45:58
Перевод: Не требуется
Cубтитры: нет
Оригинальная аудиодорожка: русский
Режиссер: Зинаида Брумберг, Валентина Брумберг
Роли озвучивали:
Алексей Грибов, Лилия Гриценко, Николай Гриценко, Михаил Яншин, Вера Марецкая, Владимир Грибков, Алексей Жильцов...
Полный список актёров
Описание:
Экранизация одноименной повести Н. В. Гоголя.
Красавец-кузнец Вакула, влюбленный в прекрасную Оксану, не остановился ни перед чем: оседлал самого черта, долетел на нем до стольного города Санкт-Петебурга, добрался до самой императрицы… И все это для того, чтобы заслужить любовь капризной красавицы.





Источник: DVD5 R5
Качество видео: DVDRip
Формат видео: AVI
Видео: 688x512 (4:3), 25 fps, XviD ~ 2062 kbps avg, 0.234 bit/pixel
Аудио: 48 kHz, Dolby Digital AC3 2.0, 192 kbps
Раздача от:
Общее
Полное имя : Noch.pered.Rozhdestvom.1951.DVDRip_[New-team]_by_AVP_Studio.avi
Формат : AVI
Формат/Информация : Audio Video Interleave
Размер файла : 744 Мбайт
Продолжительность : 45 м.
Общий поток : 2264 Кбит/сек
Программа кодирования : VirtualDubMod 1.5.10.3 | www.virtualdub-fr.org || (build 2550/release)
Библиотека кодирования : VirtualDubMod build 2550/release
Видео
Идентификатор : 0
Формат : MPEG-4 Visual
Профиль формата : Advanced Simple@L5
Параметр BVOP формата : 1
Параметр QPel формата : Нет
Параметр GMC формата : Без точки перехода
Параметр матрицы формата : Выборочная
Идентификатор кодека : XVID
Идентификатор кодека/Подсказка : XviD
Продолжительность : 45 м.
Битрейт : 2062 Кбит/сек
Ширина : 688 пикселей
Высота : 512 пикселей
Соотношение сторон : 4:3
Частота кадров : 25,000 кадров/сек
Цветовое пространство : YUV
Субдискретизация насыщенности : 4:2:0
Битовая глубина : 8 бит
Тип развёртки : Прогрессивная
Метод сжатия : С потерями
Бит/(Пиксели*Кадры) : 0.234
Размер потока : 678 Мбайт (91%)
Библиотека кодирования : XviD 73
Аудио
Идентификатор : 1
Формат : AC-3
Формат/Информация : Audio Coding 3
Расширение режима : CM (complete main)
Параметр Endianness формата : Big
Идентификатор кодека : 2000
Продолжительность : 45 м.
Вид битрейта : Постоянный
Битрейт : 192 Кбит/сек
Каналы : 2 канала
Расположение каналов : Front: L R
Частота : 48,0 КГц
Метод сжатия : С потерями
Размер потока : 63,1 Мбайт (8%)
Выравнивание : Разделение по промежуткам
Продолжительность промежутка : 40 мс. (1,00 видеокадр)
Время предзагрузки промежутка : 500 мс





   Похожие торренты   Торрент   Размер 
В этой теме нет новых непрочитанных сообщений. Ночь перед Рождеством (1951) DVDRip-AVC от New-Team

305 | 17

744.68 МБ

В этой теме нет новых непрочитанных сообщений. Ночь перед Рождеством (1951) DVDRip

155 | 8

611.46 МБ

В этой теме нет новых непрочитанных сообщений. Сборник - Любимые Мультики. Ночь перед Рождеством (2005) DVDRip от Киномагия

170 | 11

1.13 ГБ

В этой теме нет новых непрочитанных сообщений. Ночь перед Рождеством: Мышиные истории / The Night Before Christmas: A Mouse Tale (2002) DVDRip | P

166 | 28

710.59 МБ

В этой теме нет новых непрочитанных сообщений. Это была ночь перед Рождеством / 'Twas the Night Before Christmas (1974) BDRip-AVC от Тorrent-Хzona

48 | 4

336.84 МБ

В этой теме нет новых непрочитанных сообщений. Ночь перед Рождеством: Мышиные истории / The Night Before Christmas: A Mouse Tale (2002) DVD5 | P

129 | 5

2.98 ГБ

В этой теме нет новых непрочитанных сообщений. Белинский (1951) DVDRip от New-Team

48 | 6

1.46 ГБ




Вы не можете начинать темы
Вы не можете отвечать на сообщения
Вы не можете редактировать свои сообщения
Вы не можете удалять свои сообщения
Вы не можете добавлять вложения

Перейти:  
Для Мосгорсуда, Роскомнадзора и рекламодателей: mosgorsud-torrent[собачка]yandex.ru
 Вход
ppkBB3cker v.2 © 2008-2014 @ PPK
[ Time : 0.775s | 16 Queries | GZIP : Off ]
CGP output time : 0.026s | 5 Queries | GZIP : Off

Торрент трекер RUTOR.IN, Не можете зайти на rutor.org? Какой новый адрес рутор? Какое зеркало рутор? Не работает rutor.org и зеркала? Тогда наш торрент специально для вас. Rutor.in неофициальное зеркало rutor. В случае если у Вас заблокирован rutor или вдруг Вы не можете на него зайти, то Вы без труда сможете скачать бесплатно и без рекламы последние новинки кино, игр, сериалов и прочего у нас, на Rutor.in. Не нужно использовать прокси, чтобы зайти на рутор, достаточно воспользоваться нашим ресурсом. Все новые фильмы, игры, сериалы, книги и музыка за 2013 и 2014 годы через торрент бесплатно. Скачивайте фильмы в хорошем качестве, игры для пк, xbox, playstation без регистрации. У нас вы найдете новые Зарубежные сериалы и Русские сериалы 2013, 2014, 2015 годов. Оставайтесь с нами, качайте любимые фильмы, игры, сериалы, книги и музыку.