img image001 image001 image001 image001 image001 image001 image001 image001 image001 image001 image001 image001 image001 image001 image001

Planets Sun Sun Sun
Статистика раздачи
Автор: Nickolas3434 | Размер: 460.54 МБ | Добавлен: 14 авг 2015
Раздают: 78    Качают: 9
Скачать торрент
Скачать торрент
Описание торрента

СообщениеДобавлено: 14 авг 2015 


Информация о фильме:
● Название: Свинки на работе
● Оригинальное название: Piggy Tales: Pigs At Work
● Год выхода: 2015
● Страна: Финляндия
● Студия: Rovio Entertainment
● Жанр: комедия, короткометражка
● Режиссер: Fabien Weibel, Philippe Rolland, ...
● Продолжительность: 17 x ~ 00:01:05
● Перевод: не требуется

Описание фильма:
Новые приключения Свинок на работе.
Информация о файле:
● Кодек: AVC
● Формат: mp4
● Качество: WEBRip 720p
● Видео: 1280x720 (16:9), 24.000 fps, AVC ~4000 kbps avg, 0.18 bit/pixel
● Аудио: 48 kHz, AAC, 2/0 (L,R) ch, 128 kbps

Семпл
01. Nailed It
02. Lunch Break
03. Screw Up
04. Pile Up
05. Step 1
06. Jackhammered
07. Race Nut
08. Predicament In Paint
09. Get The Hammer
10. Fabulous Fluke
11. Magnetic Appeal
12. Porkatron
13. Grand Opening
14. Lights Out
15. Tipping Point
16. All Geared Up
17. Dream House
Общее
Полное имя: D:MR_eng_seriesPiggy Tales_Pigs At Work. s01. 2015. WEBRip (1280x720)s01e01. Nailed It.mp4
Формат: MPEG-4
Профиль формата: Base Media
Идентификатор кодека: isom
Размер файла: 31,6 Мбайт
Продолжительность: 1 м. 3 с.
Общий поток: 4206 Кбит/сек
Программа кодирования: Lavf56.15.102
Видео
Идентификатор: 2
Формат: AVC
Формат/Информация: Advanced Video Codec
Профиль формата: Baseline @ L3.1
Параметр CABAC формата: Нет
Параметр ReFrames формата: 3 кадра
Параметр GOP формата: M=1, N=90
Идентификатор кодека: avc1
Идентификатор кодека/Информация: Advanced Video Coding
Продолжительность: 1 м. 3 с.
Битрейт: 4000 Кбит/сек
Ширина: 1280 пикселей
Высота: 720 пикселей
Соотношение сторон: 16:9
Режим частоты кадров: Постоянный
Частота кадров: 24,000 кадра/сек
Цветовое пространство: YUV
Субдискретизация насыщенности: 4:2:0
Битовая глубина: 8 бит
Тип развёртки: Прогрессивная
Бит/(Пиксели*Кадры): 0.181
Размер потока: 30,6 Мбайт (97%)
Библиотека кодирования: x264 core 142
Настройки программы: cabac=0 / ref=3 / deblock=1:0:0 / analyse=0x1:0x111 / me=hex / subme=7 / psy=1 / psy_rd=1.00:0.00 / mixed_ref=1 / me_range=16 / chroma_me=1 / trellis=1 / 8x8dct=0 / cqm=0 / deadzone=21,11 / fast_pskip=1 / chroma_qp_offset=-2 / threads=48 / lookahead_threads=5 / sliced_threads=0 / nr=0 / decimate=1 / interlaced=0 / bluray_compat=0 / constrained_intra=0 / bframes=0 / weightp=0 / keyint=90 / keyint_min=9 / scenecut=0 / intra_refresh=0 / rc_lookahead=40 / rc=abr / mbtree=1 / bitrate=4000 / ratetol=1.0 / qcomp=0.60 / qpmin=0 / qpmax=69 / qpstep=4 / ip_ratio=1.40 / aq=1:1.00
Язык: English
Аудио
Идентификатор: 1
Формат: AAC
Формат/Информация: Advanced Audio Codec
Профиль формата: LC
Идентификатор кодека: 40
Продолжительность: 1 м. 3 с.
Вид битрейта: Постоянный
Битрейт: 128 Кбит/сек
Каналы: 2 канала
Расположение каналов: Front: L R
Частота: 48,0 КГц
Метод сжатия: С потерями
Размер потока: 986 Кбайт (3%)
Язык: English
Когда раздача ведётся путём добавления новых серий, при каждом добавлении создётся новый торрент. Чтобы начать докачку новой серии, пользователям необходимо сделать следующее:
(1) остановить скачивание,
(2) удалить старый торрент у себя из клиента (старые серии удалять не надо),
(3) скачать новый торрент и запустить его у себя в клиенте вместо старого, при этом указать клиенту путь в старую папку, куда и должно происходить скачивание новых серий.
Ваш клиент при этом должен произвести хеширование (проверку) старой папки (если не производит сам - помогите ему сделать это), и будет докачивать только те серии, которых у вас ещё нет. Старые серии при этом не удаляются, а продолжают раздаваться!
Eсли вы уже удалили старые серии, то предотвратить повторную закачку старых серий можно, отжав галочку в соответсвующих местах при запуске нового торрента. По возможности, желательно не удалять старые серии как можно дольше, чтобы релизёр не столько продолжал раздавать старые серии, а смог сконцентрироваться на новых.



   Похожие торренты   Торрент   Размер 
В этой теме нет новых непрочитанных сообщений. Свинки на работе / Piggy Tales: Pigs At Work [01х01-11] (2015) WEBRip 720p

142 | 8

346.67 МБ

В этой теме нет новых непрочитанных сообщений. Свинки на работе / Piggy Tales: Pigs At Work [01х01-24] (2015) WEBRip 720p

114 | 16

566.62 МБ

В этой теме нет новых непрочитанных сообщений. Свинки на работе / Piggy Tales: Pigs At Work [01х01-14] (2015) WEBRip 720p

92 | 21

413.32 МБ

В этой теме нет новых непрочитанных сообщений. Свинки на работе / Piggy Tales: Pigs At Work [01х01-21] (2015) WEBRip 720p

72 | 5

521.48 МБ

В этой теме нет новых непрочитанных сообщений. Свинки на работе / Piggy Tales: Pigs At Work [01х01-20] (2015) WEBRip 720p

77 | 6

504.97 МБ

В этой теме нет новых непрочитанных сообщений. Свинки на работе / Piggy Tales: Pigs At Work [01х01-16] (2015) WEBRip 720p

142 | 9

444.61 МБ

В этой теме нет новых непрочитанных сообщений. Свинки на работе / Piggy Tales: Pigs At Work [01х01-14] (2015) WEBRip 720p

0 | 5

415.51 МБ




Вы не можете начинать темы
Вы не можете отвечать на сообщения
Вы не можете редактировать свои сообщения
Вы не можете удалять свои сообщения
Вы не можете добавлять вложения

Перейти:  
Для Мосгорсуда, Роскомнадзора и рекламодателей: mosgorsud-torrent[собачка]yandex.ru
 Вход
ppkBB3cker v.2 © 2008-2014 @ PPK
[ Time : 0.029s | 15 Queries | GZIP : Off ]

Торрент трекер RUTOR.IN, Не можете зайти на rutor.org? Какой новый адрес рутор? Какое зеркало рутор? Не работает rutor.org и зеркала? Тогда наш торрент специально для вас. Rutor.in неофициальное зеркало rutor. В случае если у Вас заблокирован rutor или вдруг Вы не можете на него зайти, то Вы без труда сможете скачать бесплатно и без рекламы последние новинки кино, игр, сериалов и прочего у нас, на Rutor.in. Не нужно использовать прокси, чтобы зайти на рутор, достаточно воспользоваться нашим ресурсом. Все новые фильмы, игры, сериалы, книги и музыка за 2013 и 2014 годы через торрент бесплатно. Скачивайте фильмы в хорошем качестве, игры для пк, xbox, playstation без регистрации. У нас вы найдете новые Зарубежные сериалы и Русские сериалы 2013, 2014, 2015 годов. Оставайтесь с нами, качайте любимые фильмы, игры, сериалы, книги и музыку.
cron