img image001 image001 image001 image001 image001 image001 image001 image001 image001 image001 image001 image001 image001 image001 image001

Planets Sun Sun Sun
Статистика раздачи
Автор: Nickolas3434 | Размер: 4.55 ГБ | Добавлен: 14 авг 2015
Раздают: 93    Качают: 20
Скачать торрент
Скачать торрент
Описание торрента

СообщениеДобавлено: 14 авг 2015 


Название: Властелин колец
Оригинальное название: The Lord Of The Rings
Год выхода: 1978
Жанр: Мультфильм, Фэнтези, Анимация
Режиссер: Ральф Бакши / Ralph Bakshi
В ролях: Кристофер Гард, Уильям Скуайр, Майкл Скоулс, Джон Хёрт, Саймон Чэндлер, Доминик Гард, Норман Бёрд, Майкл Грэм Кокс, Энтони Дэниелс, Дэвид Бак
О фильме: У хоббита из Шира, Бильбо Бэггинса, хранилось волшебное кольцо. Оказалось, что оно - то самое Кольцо, что выковал Саурон, чтобы подчинить себе все эльфийские кольца. Кольцо необходимо уничтожить, поэтому племянник Бильбо, Фродо, отправляется в эльфийский город Ривенделл с тремя спутниками. Там совет народов Средиземья принимает решение об уничтожении Кольца в Ородруине. Девять представителей всех народов отправляются в опасный поход.

Страна: США
Продолжительность: 01:49:13
Перевод: Профессиональный (дублированный) [Варус Видео]
Файл
Кодек: H264
Качество: BDRip 720p
Видео: 1280x720p, MPEG AVC, 4052 Кбит/с, 23,976 кадр/с
Звук: Русский (AC3, 2 ch, 192 Кбит/с), Английский (AC3, 6 ch, 640 Кбит/с)
Субтитры: Русские, английские
Семпл


Общее
Уникальный идентификатор : 188285743030387151050091519499551091094 (0x8DA683DAFE9D9AD98D56D26C51ABA996)
Полное имя : E:Властелин.Колец.1978.BDRip.720.D.Rus.Eng.mkv
Формат : Matroska
Версия формата : Version 4 / Version 2
Размер файла : 4,55 Гбайт
Продолжительность : 2 ч. 13 м.
Общий поток : 4887 Кбит/сек
Название фильма : Властелин Колец / The Lord of the Rings (1978)
Дата кодирования : UTC 2015-08-12 10:00:30
Программа кодирования : mkvmerge v8.2.0 ('World of Adventure') 64bit
Библиотека кодирования : libebml v1.3.1 + libmatroska v1.4.2
DURATION : 02:13:20.064000000
NUMBER_OF_FRAMES : 250002
NUMBER_OF_BYTES : 192001536
_STATISTICS_WRITING_APP : mkvmerge v8.2.0 ('World of Adventure') 64bit
_STATISTICS_WRITING_DATE_UTC : 2015-08-12 10:00:30
_STATISTICS_TAGS : BPS DURATION NUMBER_OF_FRAMES NUMBER_OF_BYTES
Видео
Идентификатор : 1
Формат : AVC
Формат/Информация : Advanced Video Codec
Профиль формата : High@L4.1
Параметр CABAC формата : Да
Параметр ReFrames формата : 5 кадров
Идентификатор кодека : V_MPEG4/ISO/AVC
Продолжительность : 2 ч. 13 м.
Битрейт : 4052 Кбит/сек
Ширина : 1280 пикселей
Высота : 720 пикселей
Соотношение сторон : 16:9
Режим частоты кадров : Постоянный
Частота кадров : 23,976 кадра/сек
Цветовое пространство : YUV
Субдискретизация насыщенности : 4:2:0
Битовая глубина : 8 бит
Тип развёртки : Прогрессивная
Бит/(Пиксели*Кадры) : 0.183
Размер потока : 3,69 Гбайт (81%)
Заголовок : Властелин Колец / The Lord of the Rings (1978)
Библиотека кодирования : x264 core 92 r1510 33d382a
Настройки программы : cabac=1 / ref=5 / deblock=1:-1:-1 / analyse=0x3:0x113 / me=umh / subme=7 / psy=1 / psy_rd=1.00:0.00 / mixed_ref=1 / me_range=16 / chroma_me=1 / trellis=2 / 8x8dct=1 / cqm=0 / deadzone=21,11 / fast_pskip=1 / chroma_qp_offset=-2 / threads=6 / sliced_threads=0 / nr=0 / decimate=1 / interlaced=0 / constrained_intra=0 / bframes=3 / b_pyramid=2 / b_adapt=2 / b_bias=0 / direct=3 / wpredb=1 / wpredp=2 / keyint=250 / keyint_min=25 / scenecut=40 / intra_refresh=0 / rc_lookahead=40 / rc=2pass / mbtree=1 / bitrate=4052 / ratetol=1.0 / qcomp=0.60 / qpmin=10 / qpmax=51 / qpstep=4 / cplxblur=20.0 / qblur=0.5 / vbv_maxrate=50000 / vbv_bufsize=50000 / ip_ratio=1.40 / aq=1:1.00 / nal_hrd=none
Язык : English
Default : Да
Forced : Да
Аудио #1
Идентификатор : 2
Формат : AC-3
Формат/Информация : Audio Coding 3
Расширение режима : CM (complete main)
Параметр Endianness формата : Big
Идентификатор кодека : A_AC3
Продолжительность : 2 ч. 13 м.
Вид битрейта : Постоянный
Битрейт : 192 Кбит/сек
Каналы : 2 канала
Расположение каналов : Front: L R
Частота : 48,0 КГц
Битовая глубина : 16 бит
Метод сжатия : С потерями
Размер потока : 183 Мбайт (4%)
Заголовок : Дублированный (Варус Видео)
Язык : Russian
Default : Да
Forced : Нет
Аудио #2
Идентификатор : 3
Формат : AC-3
Формат/Информация : Audio Coding 3
Расширение режима : CM (complete main)
Параметр Endianness формата : Big
Идентификатор кодека : A_AC3
Продолжительность : 2 ч. 13 м.
Вид битрейта : Постоянный
Битрейт : 640 Кбит/сек
Каналы : 6 каналов
Расположение каналов : Front: L C R, Side: L R, LFE
Частота : 48,0 КГц
Битовая глубина : 16 бит
Метод сжатия : С потерями
Размер потока : 610 Мбайт (13%)
Заголовок : Английский (Оригинал)
Язык : English
Default : Нет
Forced : Да
Текст #1
Идентификатор : 4
Формат : UTF-8
Идентификатор кодека : S_TEXT/UTF8
Идентификатор кодека/Информация : UTF-8 Plain Text
Язык : Russian
Default : Нет
Forced : Нет
Текст #2
Идентификатор : 5
Формат : UTF-8
Идентификатор кодека : S_TEXT/UTF8
Идентификатор кодека/Информация : UTF-8 Plain Text
Язык : English
Default : Нет
Forced : Нет



   Похожие торренты   Торрент   Размер 
В этой теме нет новых непрочитанных сообщений. Властелин колец / The Lord Of The Rings (1978) BDRip от HQCLUB

15 | 7

2.18 ГБ

В этой теме нет новых непрочитанных сообщений. Властелин Колец / The Lord Of The Rings (1978) BDRip от HQ-ViDEO

8 | 4

2.54 ГБ

В этой теме нет новых непрочитанных сообщений. Властелин Колец / The Lord of the Rings (1978) BDRip 1080p от FreeHD

23 | 7

7.95 ГБ

В этой теме нет новых непрочитанных сообщений. Властелин колец / The Lord of the Rings (1978) DVDRip

32 | 9

1.36 ГБ

В этой теме нет новых непрочитанных сообщений. Властелин колец / The Lord Of The Rings (1978) DVDRip | D

25 | 4

2 ГБ

В этой теме нет новых непрочитанных сообщений. Властелин колец / The Lord Of The Rings (1978) НDRip от Generalfilm | КПК

7 | 3

457.39 МБ

В этой теме нет новых непрочитанных сообщений. Властелин колец: Две крепости / The Lord of the Rings: The Two Towers [Limited Extended Edition] (2002) BDRip [720p] от HQ-ViDEO

35 | 22

11.52 ГБ




Вы не можете начинать темы
Вы не можете отвечать на сообщения
Вы не можете редактировать свои сообщения
Вы не можете удалять свои сообщения
Вы не можете добавлять вложения

Перейти:  
Для Мосгорсуда, Роскомнадзора и рекламодателей: mosgorsud-torrent[собачка]yandex.ru
 Вход
ppkBB3cker v.2 © 2008-2014 @ PPK
[ Time : 0.054s | 15 Queries | GZIP : Off ]

Торрент трекер RUTOR.IN, Не можете зайти на rutor.org? Какой новый адрес рутор? Какое зеркало рутор? Не работает rutor.org и зеркала? Тогда наш торрент специально для вас. Rutor.in неофициальное зеркало rutor. В случае если у Вас заблокирован rutor или вдруг Вы не можете на него зайти, то Вы без труда сможете скачать бесплатно и без рекламы последние новинки кино, игр, сериалов и прочего у нас, на Rutor.in. Не нужно использовать прокси, чтобы зайти на рутор, достаточно воспользоваться нашим ресурсом. Все новые фильмы, игры, сериалы, книги и музыка за 2013 и 2014 годы через торрент бесплатно. Скачивайте фильмы в хорошем качестве, игры для пк, xbox, playstation без регистрации. У нас вы найдете новые Зарубежные сериалы и Русские сериалы 2013, 2014, 2015 годов. Оставайтесь с нами, качайте любимые фильмы, игры, сериалы, книги и музыку.