img image001 image001 image001 image001 image001 image001 image001 image001 image001 image001 image001 image001 image001 image001 image001

Planets Sun Sun Sun
Статистика раздачи
Автор: Nickolas3434 | Размер: 721.07 МБ | Добавлен: 14 авг 2015
Раздают: 1107    Качают: 60
Скачать торрент
Скачать торрент
Описание торрента

СообщениеДобавлено: 14 авг 2015 


Информация о фильме
Название: Холодное торжество
Оригинальное название: Frozen Fever
Год выхода: 2015
Жанр: мультфильм, короткометражка, фэнтези, комедия
Режиссер: Крис Бак / Chris Buck, Дженнифер Ли / Jennifer Lee
В ролях: Кристен Белл, Идина Мензел, Джонатан Грофф, Джош Гэд, Крис Уильямс, Сантино Фонтана
О фильме:
В день рождения Анны, Эльза, Кристофф и Олаф полны решимости устроить ей запоминающийся праздник, и с ледяными силами Эльзы праздник получится поистине незабываемым.

Страна: США
Студия: Walt Disney Animation Studios, Walt Disney Pictures
Продолжительность: 00:07:57
Перевод: Дублированный [звук с TS]
Файл
Кодек: MPEG-4 AVC
Качество: 1080p
Видео: 10.7 Мбит/с, 1980x856
Звук: Русский (AC3, 2 ch, 192 Кбит/с), Английский (DTS, 6 ch, 1509 Кбит/с)
Субтитры: Русские (полные, форсированные на песни), английские
Семпл


Общее
Уникальный идентификатор : 192397021516976011864109536803441990345 (0x90BE5188E42E436A9071006CA55DDAC9)
Полное имя : E:Холодное.торжество.2015.BDRip.2015.Dt.Rus.Eng.mkv
Формат : Matroska
Версия формата : Version 4 / Version 2
Размер файла : 721 Мбайт
Продолжительность : 7 м. 57 с.
Общий поток : 12,7 Мбит/сек
Название фильма : Холодное торжество / Frozen Fever (2015)
Дата кодирования : UTC 2015-08-12 18:43:24
Программа кодирования : mkvmerge v8.2.0 ('World of Adventure') 64bit
Библиотека кодирования : libebml v1.3.1 + libmatroska v1.4.2
DURATION : 00:07:18.483000000
NUMBER_OF_FRAMES : 119
NUMBER_OF_BYTES : 4708
_STATISTICS_WRITING_APP : mkvmerge v8.2.0 ('World of Adventure') 64bit
_STATISTICS_WRITING_DATE_UTC : 2015-08-12 18:43:24
_STATISTICS_TAGS : BPS DURATION NUMBER_OF_FRAMES NUMBER_OF_BYTES
Видео
Идентификатор : 1
Формат : AVC
Формат/Информация : Advanced Video Codec
Профиль формата : High@L4.1
Параметр CABAC формата : Да
Параметр ReFrames формата : 4 кадра
Идентификатор кодека : V_MPEG4/ISO/AVC
Продолжительность : 7 м. 57 с.
Битрейт : 10,7 Мбит/сек
Номинальный битрейт : 11,5 Мбит/сек
Ширина : 1920 пикселей
Высота : 856 пикселей
Соотношение сторон : 2,25:1
Режим частоты кадров : Постоянный
Частота кадров : 23,976 кадра/сек
Цветовое пространство : YUV
Субдискретизация насыщенности : 4:2:0
Битовая глубина : 8 бит
Тип развёртки : Прогрессивная
Бит/(Пиксели*Кадры) : 0.272
Размер потока : 610 Мбайт (85%)
Заголовок : Холодное торжество / Frozen Fever (2015)
Библиотека кодирования : x264 core 142 r2495 6a301b6
Настройки программы : cabac=1 / ref=4 / deblock=1:-2:-2 / analyse=0x3:0x113 / me=umh / subme=7 / psy=1 / psy_rd=1.00:0.15 / mixed_ref=1 / me_range=16 / chroma_me=1 / trellis=1 / 8x8dct=1 / cqm=0 / deadzone=21,11 / fast_pskip=1 / chroma_qp_offset=-3 / threads=12 / lookahead_threads=3 / sliced_threads=0 / nr=0 / decimate=1 / interlaced=0 / bluray_compat=0 / constrained_intra=0 / bframes=5 / b_pyramid=2 / b_adapt=2 / b_bias=0 / direct=3 / weightb=1 / open_gop=0 / weightp=2 / keyint=250 / keyint_min=25 / scenecut=40 / intra_refresh=0 / rc_lookahead=50 / rc=abr / mbtree=1 / bitrate=11500 / ratetol=1.0 / qcomp=0.60 / qpmin=0 / qpmax=69 / qpstep=4 / vbv_maxrate=31250 / vbv_bufsize=31250 / nal_hrd=none / filler=0 / ip_ratio=1.40 / aq=1:0.60
Язык : English
Default : Да
Forced : Нет
Аудио #1
Идентификатор : 2
Формат : AC-3
Формат/Информация : Audio Coding 3
Расширение режима : CM (complete main)
Параметр Endianness формата : Big
Идентификатор кодека : A_AC3
Продолжительность : 7 м. 57 с.
Вид битрейта : Постоянный
Битрейт : 192 Кбит/сек
Каналы : 2 канала
Расположение каналов : Front: L R
Частота : 48,0 КГц
Битовая глубина : 16 бит
Метод сжатия : С потерями
Размер потока : 10,9 Мбайт (2%)
Заголовок : Профессиональный (Дублированный) [звук с TS]?
Язык : Russian
Default : Нет
Forced : Нет
Аудио #2
Идентификатор : 3
Формат : DTS
Формат/Информация : Digital Theater Systems
Режим : 16
Параметр Endianness формата : Big
Идентификатор кодека : A_DTS
Продолжительность : 7 м. 57 с.
Вид битрейта : Постоянный
Битрейт : 1509 Кбит/сек
Каналы : 6 каналов
Расположение каналов : Front: L C R, Side: L R, LFE
Частота : 48,0 КГц
Битовая глубина : 24 бит
Метод сжатия : С потерями
Размер потока : 85,9 Мбайт (12%)
Заголовок : Английский (Оригинал)
Язык : English
Default : Да
Forced : Нет
Текст #1
Идентификатор : 4
Формат : UTF-8
Идентификатор кодека : S_TEXT/UTF8
Идентификатор кодека/Информация : UTF-8 Plain Text
Заголовок : Песни
Язык : Russian
Default : Да
Forced : Нет
Текст #2
Идентификатор : 5
Формат : UTF-8
Идентификатор кодека : S_TEXT/UTF8
Идентификатор кодека/Информация : UTF-8 Plain Text
Заголовок : Полные
Язык : Russian
Default : Нет
Forced : Да
Текст #3
Идентификатор : 6
Формат : UTF-8
Идентификатор кодека : S_TEXT/UTF8
Идентификатор кодека/Информация : UTF-8 Plain Text
Язык : English
Default : Нет
Forced : Нет
Меню
00:00:00.000 : en:Chapter 1



   Похожие торренты   Торрент   Размер 
В этой теме нет новых непрочитанных сообщений. Холодное торжество / Frozen Fever (2015) BDRip | A, Чистый звук

402 | 61

178.02 МБ

В этой теме нет новых непрочитанных сообщений. Холодное торжество / Frozen Fever (2015) BDRip 720p | Чистый звук

3794 | 131

483.47 МБ

В этой теме нет новых непрочитанных сообщений. Холодное торжество / Frozen Fever (2015) HDRip | Чистый звук

1316 | 39

127.37 МБ

В этой теме нет новых непрочитанных сообщений. Холодное торжество / Frozen Fever (2015) BDRip | L1

1275 | 113

757.78 МБ

В этой теме нет новых непрочитанных сообщений. Холодное торжество / Frozen Fever (2015) BDRip 720p | Sub

639 | 87

71.18 МБ

В этой теме нет новых непрочитанных сообщений. Холодное торжество / Frozen Fever (2015) BDRip от MegaPeer | D, L1

1253 | 20

165.93 МБ

В этой теме нет новых непрочитанных сообщений. Холодное сердце / Frozen (2013) BDRip-AVC от MediaClub | Чистый звук

2514 | 89

1.79 ГБ




Вы не можете начинать темы
Вы не можете отвечать на сообщения
Вы не можете редактировать свои сообщения
Вы не можете удалять свои сообщения
Вы не можете добавлять вложения

Перейти:  
Для Мосгорсуда, Роскомнадзора и рекламодателей: mosgorsud-torrent[собачка]yandex.ru
 Вход
ppkBB3cker v.2 © 2008-2014 @ PPK
[ Time : 0.038s | 15 Queries | GZIP : Off ]

Торрент трекер RUTOR.IN, Не можете зайти на rutor.org? Какой новый адрес рутор? Какое зеркало рутор? Не работает rutor.org и зеркала? Тогда наш торрент специально для вас. Rutor.in неофициальное зеркало rutor. В случае если у Вас заблокирован rutor или вдруг Вы не можете на него зайти, то Вы без труда сможете скачать бесплатно и без рекламы последние новинки кино, игр, сериалов и прочего у нас, на Rutor.in. Не нужно использовать прокси, чтобы зайти на рутор, достаточно воспользоваться нашим ресурсом. Все новые фильмы, игры, сериалы, книги и музыка за 2013 и 2014 годы через торрент бесплатно. Скачивайте фильмы в хорошем качестве, игры для пк, xbox, playstation без регистрации. У нас вы найдете новые Зарубежные сериалы и Русские сериалы 2013, 2014, 2015 годов. Оставайтесь с нами, качайте любимые фильмы, игры, сериалы, книги и музыку.
cron