img image001 image001 image001 image001 image001 image001 image001 image001 image001 image001 image001 image001 image001 image001 image001

Planets Sun Sun Sun
Статистика раздачи
Автор: Nickolas3434 | Размер: 745.4 МБ | Добавлен: 18 авг 2015
Раздают: 379    Качают: 21
Скачать торрент
Скачать торрент
Описание торрента

СообщениеДобавлено: 18 авг 2015 


Информация о фильме
Название: Пчёлка Майя
Оригинальное название: Maya The Bee - Movie
Год выхода: 2014
Жанр: Мультфильм, приключения, комедия
Режиссер: Алекс Стадерманн / Alexs Stadermann
О фильме: Легендарная пчелка доросла до большого экрана. Любопытная Пчелка Майя всегда в поисках приключений и с готовностью перевернет все в улье с ног на голову, чем нередко выводит из себя наставницу госпожу Кассандру. Впрочем, в улье случилось гораздо более глобальное несчастье - похищен королевский нектар, эликсир жизни пчелиной Королевы! Советница монарха Жужжала обвиняет во всем ос и выставляет Майю их сообщницей. Вместе со своим лучшим другом Уилли отважная пчелка вынуждена отправиться в полное опасностей путешествие, чтобы разыскать украденную ценность и спасти жизнь своей Королеве...

Страна: Австралия, Германия
Студия: Buzz Studios, Flying Bark Productions, Screen Australia, Zweites Deutsches Fernsehen
Продолжительность: 01:27:46
Перевод: Профессиональный (дублированный) - Пифагор
Роли дублировали: Элиза Мартиросова, Даниил Эльдаров, Владимир Антипов, Александр Гаврилин, Александр Головчанский
Файл
Формат: avi
Качество: BDRip (Blu-Ray)
Видео: XviD, 656x352, 23.976fps, 1050kbps
Аудио: MPEG Layer 3, 2ch, 48000Hz, 128kbps

General
Complete name : Pchelka.Maia.2014.D.BDRip.700.MediaClub.CurHaJI.avi
Format : AVI
Format/Info : Audio Video Interleave
File size : 745 MiB
Duration : 1h 27mn
Overall bit rate : 1 187 Kbps
Movie name : Pchelka.Maia.2014.D.BDRip.700.MediaClub.CurHaJI
Writing application : Lavf53.13.0
Writing library : VirtualDub build 35491/release
Video
ID : 0
Format : MPEG-4 Visual
Format profile : Advanced Simple@L5
Format settings, BVOP : 2
Format settings, QPel : No
Format settings, GMC : No warppoints
Format settings, Matrix : Custom
Codec ID : XVID
Codec ID/Hint : XviD
Duration : 1h 27mn
Bit rate : 1 050 Kbps
Width : 656 pixels
Height : 352 pixels
Display aspect ratio : 1.85:1
Frame rate : 23.976 fps
Color space : YUV
Chroma subsampling : 4:2:0
Bit depth : 8 bits
Scan type : Progressive
Compression mode : Lossy
Bits/(Pixel*Frame) : 0.190
Stream size : 659 MiB (88%)
Writing library : XviD 64
Audio
ID : 1
Format : MPEG Audio
Format version : Version 1
Format profile : Layer 3
Codec ID : 55
Codec ID/Hint : MP3
Duration : 1h 27mn
Bit rate mode : Constant
Bit rate : 128 Kbps
Channel(s) : 2 channels
Sampling rate : 48.0 KHz
Compression mode : Lossy
Delay relative to video : 20ms
Stream size : 80.4 MiB (11%)
Alignment : Split accross interleaves
Interleave, duration : 42 ms (1.00 video frame)
Interleave, preload duration : 500 ms



Релиз от:



   Похожие торренты   Торрент   Размер 
В этой теме нет новых непрочитанных сообщений. Пчёлка Майя / Maya The Bee – Movie (2014) BDRip от New-Team | D

270 | 38

1.46 ГБ

В этой теме нет новых непрочитанных сообщений. Пчёлка Майя / Maya the Bee Movie (2014) BDRip 720p | iTunes

353 | 26

3.4 ГБ

В этой теме нет новых непрочитанных сообщений. Пчёлка Майя / Maya The Bee – Movie (2014) BDRip 1080p от NNNB

186 | 17

5.76 ГБ

В этой теме нет новых непрочитанных сообщений. Пчёлка Майя / Maya the Bee Movie (2014) BDRip-AVC | Чистый звук

931 | 62

1.81 ГБ

В этой теме нет новых непрочитанных сообщений. Пчёлка Майя / Maya The Bee – Movie (2014) BDRip 1080p | iTunes

499 | 35

4.13 ГБ

В этой теме нет новых непрочитанных сообщений. Пчёлка Майя / Maya The Bee - Movie (2014) BDRip 720p | KinoGadget | iPad

289 | 11

1.42 ГБ

В этой теме нет новых непрочитанных сообщений. Пчёлка Майя / Maya the Bee Movie (2014) BDRip 1080p | Чистый звук

558 | 30

4.13 ГБ




Вы не можете начинать темы
Вы не можете отвечать на сообщения
Вы не можете редактировать свои сообщения
Вы не можете удалять свои сообщения
Вы не можете добавлять вложения

Перейти:  
Для Мосгорсуда, Роскомнадзора и рекламодателей: mosgorsud-torrent[собачка]yandex.ru
 Вход
ppkBB3cker v.2 © 2008-2014 @ PPK
[ Time : 0.042s | 16 Queries | GZIP : Off ]

cron