img image001 image001 image001 image001 image001 image001 image001 image001 image001 image001 image001 image001 image001 image001 image001

Planets Sun Sun Sun
Статистика раздачи
Автор: Nickolas3434 | Размер: 745.22 МБ | Добавлен: 20 авг 2015
Раздают: 54    Качают: 11
Скачать торрент
Скачать торрент
Описание торрента

СообщениеДобавлено: 20 авг 2015 


Информация о фильме
Название: Кругосветное путешествие Твити
Оригинальное название: Tweety's High-Flying Adventure
Страна: США
Год выхода: 2000
Жанр: мультфильм, комедия, семейный
Режиссер: Карл Тордж / Karl Toerge, Чарльз Виссер / Charles Visser, Джеймс Т. Уокер / James T. Walker
В ролях: Джо Аляски, Джефф Беннетт, Джули Бернштейн, Стивен Бернштейн, Джим Каммингс, Джун Форэй, Стэн Фреберг, Ти’Кейя Кристел Кеймэ, Тресс МакНилл
О фильме:
Полнометражный анимационный фильм с маленькой желтой птичкой в главной роли. Когда полковник Римфайр из Клуба Чокнутых заявил о том, что кошки - самые умные животные, Бабуля, в надежде собрать достаточное количество денег на спасение детского парка, заключает пари о том, что ее птичка Твити сможет облететь вокруг света за 80 дней, собрав при этом отпечатки 80-ти кошачьих лап. Сильвестр все еще жаждет полакомится Твити и испытывает яростное негодование от одной мысли о том, что другой кот сможет съесть птичку раньше него. По этой причине он клянется следовать за Твити по всему миру и самостоятельно поймать желанную канарейку.

Продолжительность: 01:11:53
Перевод: Авторский (одноголосый закадровый) Андрей Дольский
Субтитры: отсутствуют
Файл
Кодек: XviD
Качество: DVDRip [by rs.bandito]
Видео: 640x480 (1.33:1), 29.970 fps, XviD build 73 ~1309 kbps avg, 0.14 bit/pixel
Аудио №1: Русский: 48 kHz, MPEG Layer 3, 2 ch, ~128.00 kbps avg |Авторский (одноголосый закадровый)|

General
Complete name : G:\03Tweety's_High-Flying_Adventure_DVDRip.avi
Format : AVI
Format/Info : Audio Video Interleave
File size : 745 MiB
Duration : 1h 11mn
Overall bit rate : 1 449 Kbps
Movie name : Tweety's High-Flying Adventure [ripped by domin8]
Genre : Child's
Writing application : VirtualDubMod 1.5.10.3 | www.virtualdub-fr.org || (build 2550/release)
Original source form/Name : Cartoon
Video #0
ID : 0
Format : MPEG-4 Visual
Format profile : Advanced Simple@L5
Format settings, BVOP : Yes
Format settings, QPel : No
Format settings, GMC : No warppoints
Format settings, Matrix : Custom
Codec ID : XVID
Codec ID/Hint : XviD
Duration : 1h 11mn
Bit rate : 1 310 Kbps
Width : 640 pixels
Height : 480 pixels
Display aspect ratio : 4:3
Frame rate : 29.970 fps
Color space : YUV
Chroma subsampling : 4:2:0
Bit depth : 8 bits
Scan type : Progressive
Bits/(Pixel*Frame) : 0.142
Stream size : 673 MiB (90%)
Writing library : XviD 73
Audio #1
ID : 1
Format : MPEG Audio
Format version : Version 1
Format profile : Layer 3
Codec ID : 55
Codec ID/Hint : MP3
Duration : 1h 11mn
Bit rate mode : Constant
Bit rate : 128 Kbps
Channel(s) : 2 channels
Sampling rate : 48.0 KHz
Stream size : 65.8 MiB (9%)
Alignment : Aligned on interleaves
Interleave, duration : 33 ms (1.00 video frame)
Interleave, preload duration : 504 ms
Title : Russian
Writing library : LAME3.99r
Encoding settings : -m s -V 4 -q 0 -lowpass 17 -b 128



Автор рипа: domin8



   Похожие торренты   Торрент   Размер 
В этой теме нет новых непрочитанных сообщений. Кругосветное путешествие Твити / Tweety's High-Flying Adventure (2000) DVDRip от rs.bandito | A

142 | 24

1.48 ГБ

В этой теме нет новых непрочитанных сообщений. Кругосветное путешествие Мартена / Martin autour du monde [01-10] (2013) HDTVRip от GeneralFilm | D

18 | 19

3.1 ГБ

В этой теме нет новых непрочитанных сообщений. Кругосветное путешествие Оззи и Джека / Ozzy Jack's World Detour (2016) HDTVRip от Generalfilm

4 | 0

1.07 ГБ

В этой теме нет новых непрочитанных сообщений. Кругосветное путешествие Оззи и Джека / Ozzy Jack's World Detour (2016) HDTVRip от Generalfilm

8 | 8

1.61 ГБ

В этой теме нет новых непрочитанных сообщений. Кругосветное путешествие Оззи и Джека / Ozzy Jack's World Detour (2016) HDTVRip от Generalfilm

0 | 0

550.4 МБ

В этой теме нет новых непрочитанных сообщений. Noel Gallagher's High Flying Birds - Noel Gallagher's High Flying Birds (2011) FLAC

1 | 2

291.1 МБ

В этой теме нет новых непрочитанных сообщений. Горный велосипед / New World Disorder 7 - Flying High Again / NWD7 (2006) DVDRip

1 | 1

702.44 МБ




Вы не можете начинать темы
Вы не можете отвечать на сообщения
Вы не можете редактировать свои сообщения
Вы не можете удалять свои сообщения
Вы не можете добавлять вложения

Перейти:  
Для Мосгорсуда, Роскомнадзора и рекламодателей: mosgorsud-torrent[собачка]yandex.ru
 Вход
ppkBB3cker v.2 © 2008-2014 @ PPK
[ Time : 0.515s | 14 Queries | GZIP : Off ]

Торрент трекер RUTOR.IN, Не можете зайти на rutor.org? Какой новый адрес рутор? Какое зеркало рутор? Не работает rutor.org и зеркала? Тогда наш торрент специально для вас. Rutor.in неофициальное зеркало rutor. В случае если у Вас заблокирован rutor или вдруг Вы не можете на него зайти, то Вы без труда сможете скачать бесплатно и без рекламы последние новинки кино, игр, сериалов и прочего у нас, на Rutor.in. Не нужно использовать прокси, чтобы зайти на рутор, достаточно воспользоваться нашим ресурсом. Все новые фильмы, игры, сериалы, книги и музыка за 2013 и 2014 годы через торрент бесплатно. Скачивайте фильмы в хорошем качестве, игры для пк, xbox, playstation без регистрации. У нас вы найдете новые Зарубежные сериалы и Русские сериалы 2013, 2014, 2015 годов. Оставайтесь с нами, качайте любимые фильмы, игры, сериалы, книги и музыку.