img image001 image001 image001 image001 image001 image001 image001 image001 image001 image001 image001 image001 image001 image001 image001

Planets Sun Sun Sun
Статистика раздачи
Автор: Nickolas3434 | Размер: 1.38 ГБ | Добавлен: 24 авг 2015
Раздают: 14    Качают: 3
Скачать торрент
Скачать торрент
Описание торрента

СообщениеДобавлено: 24 авг 2015 

Информация о сериале
Название: Мы обычные медведи
Оригинальное название: We Bare Bears
Год выхода: 2015
Жанр: мультфильм, фэнтези, комедия, семейный
Автор идеи: Дэниэл Чонг /Daniel Chong/
Режиссер: Мэнни Эрнандес /Manny Hernandez/
Роли озвучивали: Эрик Эдельштейн /Eric Edelstein/, Деметри Мартин /Demetri Martin/, Бобби Мойнахан /Bobby Moynihan/, Пэттон Освальт /Patton Oswalt/, Шарлин Йи /Charlyne Yi/, Джейсон Ли /Jason Lee/ и др.
О сериале:
Три брата-медведя Гризли, Панда и Белый отчаянно пытаются влиться в общество людей, однако покупая еду, борясь за интернет-славу или заводя друзей, им не всегда удаётся соответствовать людской природе. Но братья всегда готовы прийти друг другу на выручку.

Страна: США
Студия: Cartoon Network Studios
Продолжительность: 4 x ~ 00:11:00
Перевод: Профессиональный (многоголосый, закадровый) - AlexFilm
Релиз от:
Перевод: Константин Кривоногов
Монтаж и сведение звука: Михаил Шорыгин
Роли озвучивали:
Татьяна Манетина
Роман Сопко
Михаил Шорыгин
Михаил Суслов
Файл
Кодек: H.264
Качество: WEB-DL 720p
Видео: 1280x720 at 23.976 fps, MPEG-4 AVC, ~4000 kbps avg
Аудио#1: Russian: 48 kHz, AC3, 2/0 (L,R) ch, ~192.00 kbps avg |Многоголосый закадровый, AlexFilm|
Аудио#2: English: 48 kHz, AC3, 2/0 (L,R) ch, ~192.00 kbps avg |Оригинал|
Субтитры: none

General
Complete name : We.Bare.Bears.S01E01.Our.Stuff.WEB-DL.720p.Rus.Eng.AlexFilm.mkv
Format : Matroska
Format version : Version 4 / Version 2
File size : 373 MiB
Duration : 11mn 34s
Overall bit rate : 4 509 Kbps
Movie name : We Bare Bears 1x01 @ AlexFilm
Encoded date : UTC 2015-08-21 08:30:27
Writing application : mkvmerge v7.1.0 ('Good Love') 64bit built on Jul 27 2014 13:06:55
Writing library : libebml v1.3.0 + libmatroska v1.4.1
Video
ID : 1
Format : AVC
Format/Info : Advanced Video Codec
Format profile : High@L3.1
Format settings, CABAC : No
Format settings, ReFrames : 2 frames
Codec ID : V_MPEG4/ISO/AVC
Duration : 11mn 34s
Bit rate : 4 036 Kbps
Width : 1 280 pixels
Height : 720 pixels
Display aspect ratio : 16:9
Frame rate mode : Constant
Frame rate : 23.976 fps
Color space : YUV
Chroma subsampling : 4:2:0
Bit depth : 8 bits
Scan type : Progressive
Bits/(Pixel*Frame) : 0.183
Stream size : 334 MiB (89%)
Language : English
Default : Yes
Forced : No
Color range : Limited
Color primaries : BT.709
Transfer characteristics : BT.709
Matrix coefficients : BT.709
Audio #1
ID : 2
Format : AC-3
Format/Info : Audio Coding 3
Mode extension : CM (complete main)
Format settings, Endianness : Big
Codec ID : A_AC3
Duration : 11mn 34s
Bit rate mode : Constant
Bit rate : 192 Kbps
Channel(s) : 2 channels
Channel positions : Front: L R
Sampling rate : 48.0 KHz
Compression mode : Lossy
Stream size : 15.9 MiB (4%)
Title : DD2.0 AlexFilm
Language : Russian
Default : Yes
Forced : No
Audio #2
ID : 3
Format : AC-3
Format/Info : Audio Coding 3
Mode extension : CM (complete main)
Format settings, Endianness : Big
Codec ID : A_AC3
Duration : 11mn 34s
Bit rate mode : Constant
Bit rate : 192 Kbps
Channel(s) : 2 channels
Channel positions : Front: L R
Sampling rate : 48.0 KHz
Compression mode : Lossy
Stream size : 15.9 MiB (4%)
Title : DD2.0 Original
Language : English
Default : No
Forced : No
01. Our Stuff / Наши вещи
02. Viral Video / Вирусное видео
03. Food Truck / Фургончик с едой
04. Chloe / Хлоя
Когда раздача ведётся путём добавления новых серий, при каждом добавлении создётся новый торрент. Чтобы начать докачку новой серии, пользователям необходимо сделать следующее:
(1) остановить скачивание,
(2) удалить старый торрент у себя из клиента (старые серии удалять не надо),
(3) скачать новый торрент и запустить его у себя в клиенте вместо старого, при этом указать клиенту путь в старую папку, куда и должно происходить скачивание новых серий.
Ваш клиент при этом должен произвести хеширование (проверку) старой папки (если не производит сам - помогите ему сделать это), и будет докачивать только те серии, которых у вас ещё нет. Старые серии при этом не удаляются, а продолжают раздаваться!
Eсли вы уже удалили старые серии, то предотвратить повторную закачку старых серий можно, отжав галочку в соответсвующих местах при запуске нового торрента. По возможности, желательно не удалять старые серии как можно дольше, чтобы релизёр не столько продолжал раздавать старые серии, а смог сконцентрироваться на новых.



   Похожие торренты   Торрент   Размер 
В этой теме нет новых непрочитанных сообщений. Мы обычные медведи / We Bare Bears [01x01-16 из 22] (2015) WEB-DL 720p | AlexFilm

67 | 39

6.1 ГБ

В этой теме нет новых непрочитанных сообщений. Мы обычные медведи / We Bare Bears [01x01-10 из 22] (2015) WEB-DL 720p | AlexFilm

180 | 33

3.54 ГБ

В этой теме нет новых непрочитанных сообщений. Мы обычные медведи / We Bare Bears [01x01-08 из 22] (2015) WEB-DL 720p | AlexFilm

69 | 50

2.81 ГБ

В этой теме нет новых непрочитанных сообщений. Мы обычные медведи / We Bare Bears [01x01-14 из 22] (2015) WEB-DL 720p | AlexFilm

27 | 19

5.44 ГБ

В этой теме нет новых непрочитанных сообщений. Мы обычные медведи / We Bare Bears [01x01-18 из 23] (2015) WEB-DL 720p | AlexFilm

81 | 41

6.83 ГБ

В этой теме нет новых непрочитанных сообщений. Мы обычные медведи / We Bare Bears [01x01-02 из 22] (2015) WEB-DL 720p | AlexFilm

56 | 10

718.8 МБ

В этой теме нет новых непрочитанных сообщений. Мы обычные медведи / We Bare Bears [01x01-06 из 22] (2015) WEB-DL 720p | AlexFilm

68 | 32

2.08 ГБ




Вы не можете начинать темы
Вы не можете отвечать на сообщения
Вы не можете редактировать свои сообщения
Вы не можете удалять свои сообщения
Вы не можете добавлять вложения

Перейти:  
Для Мосгорсуда, Роскомнадзора и рекламодателей: mosgorsud-torrent[собачка]yandex.ru
 Вход
ppkBB3cker v.2 © 2008-2014 @ PPK
[ Time : 0.043s | 15 Queries | GZIP : Off ]

Торрент трекер RUTOR.IN, Не можете зайти на rutor.org? Какой новый адрес рутор? Какое зеркало рутор? Не работает rutor.org и зеркала? Тогда наш торрент специально для вас. Rutor.in неофициальное зеркало rutor. В случае если у Вас заблокирован rutor или вдруг Вы не можете на него зайти, то Вы без труда сможете скачать бесплатно и без рекламы последние новинки кино, игр, сериалов и прочего у нас, на Rutor.in. Не нужно использовать прокси, чтобы зайти на рутор, достаточно воспользоваться нашим ресурсом. Все новые фильмы, игры, сериалы, книги и музыка за 2013 и 2014 годы через торрент бесплатно. Скачивайте фильмы в хорошем качестве, игры для пк, xbox, playstation без регистрации. У нас вы найдете новые Зарубежные сериалы и Русские сериалы 2013, 2014, 2015 годов. Оставайтесь с нами, качайте любимые фильмы, игры, сериалы, книги и музыку.