img image001 image001 image001 image001 image001 image001 image001 image001 image001 image001 image001 image001 image001 image001 image001

Planets Sun Sun Sun
Статистика раздачи
Автор: Nickolas3434 | Размер: 2.9 ГБ | Добавлен: 27 авг 2015
Раздают: 84    Качают: 12
Скачать торрент
Скачать торрент
Описание торрента

СообщениеДобавлено: 27 авг 2015 

Дюймовочка
| Thumbelina |

Информация о фильме
Название: Дюймовочка
Оригинальное название: Thumbelina
Год выхода: 1994
Жанр: мультфильм, мюзикл, фэнтези, мелодрама, семейный
Режиссер: Дон Блат, Гари Голдман
В ролях: Warner Bros. Pictures, Don Bluth
О фильме:
Mультфильм по сказке Ганса-Христиана Андерсена. Добрая колдунья дала бездетной женщине ячменное зернышко, и из него выросла маленькая девочка — не больше дюйма. Поэтому ее назвали Дюймовочка. О ее приключениях и рассказывает этот замечательный мультфильм. Маленькая Дюймовочка — храбрая девочка, она не боится испытаний и опасных приключений, подстерегающих ее в большом мире. Дюймовочка не перестает попадать из огня да в полымя. После многих злоключений, потерявшаяся и одна-одинешенька Дюймовочка становится добычей мрачной мыши Моны, которая обещает ей кров и стол, если она выйдет замуж за затворника мистера Крота. Когда же настает день свадьбы... Дюймовочка выходит замуж, но не за крота, а за принца — и становится принцессой!

Студия: США, Ирландия
Продолжительность: 01:26:32
Перевод: Дублированный, профессиональный многоголосый, авторский
Файл
Кодек: h.264
Качество: BDRip-AVC
Видео: 3066 Кбит/с, 1024x554, 23.976 кадр/с
Звук:
• №1: Русский (AC3, 2 ch, 192 Кбит/с) Дублированный [Первый канал, песни дублированы]
• №2: Русский (AC3, 2 ch, 192 Кбит/с) Дублированный [Варус Видео]
• №3: Русский (AC3, 6 ch, 384 Кбит/с) Профессиональный многоголосый [20th Century Fox]
• №4: Русский (AC3, 6 ch, 384 Кбит/с) Авторский одноголосый [Юрий Живов]
• №5: Русский (AC3, 2 ch, 192 Кбит/с) Авторский одноголосый [Алексей Михалев]
• №6: Английский (AC3, 6 ch, 384 Кбит/с)
• №7: Украинский (АС3, 2 ch, 192 Кбит/с) Профессиональный многоголосый [1+1] —> скачать
Субтитры: Русские, русские (Парыгин), английские, английские (SDH)
Полное имя : Thumbelina.1994.x264.BDRip-AVC.0ptimus.mkv
Формат : Matroska
Версия формата : Version 2
Размер файла : 2,90 Гбайт
Продолжительность : 1 ч. 26 м.
Общий поток : 4798 Кбит/сек
Название фильма : Дюймовочка | Thumbelina [1994] -= BDRip (AVC) by 0ptimus =-
Дата кодирования : UTC 2015-08-25 11:17:06
Программа кодирования : mkvmerge v6.6.0 ('The Edge Of The In Between') built on Dec 1 2013 17:55:00
Библиотека кодирования : libebml v1.3.0 + libmatroska v1.4.1
Видео
Идентификатор : 1
Формат : AVC
Формат/Информация : Advanced Video Codec
Профиль формата : High@L4.1
Параметр CABAC формата : Да
Параметр ReFrames формата : 9 кадров
Идентификатор кодека : V_MPEG4/ISO/AVC
Продолжительность : 1 ч. 26 м.
Битрейт : 3066 Кбит/сек
Ширина : 1024 пикселя
Высота : 554 пикселя
Соотношение сторон : 1,85:1
Режим частоты кадров : Постоянный
Частота кадров : 23,976 кадра/сек
Цветовое пространство : YUV
Субдискретизация насыщенности : 4:2:0
Битовая глубина : 8 бит
Тип развёртки : Прогрессивная
Бит/(Пиксели*Кадры) : 0.225
Размер потока : 1,80 Гбайт (62%)
Заголовок : Rip by 0ptimus
Библиотека кодирования : x264 core 133 r2334 a3ac64b
Настройки программы : cabac=1 / ref=9 / deblock=1:-3:-3 / analyse=0x3:0x113 / me=umh / subme=11 / psy=1 / psy_rd=1.00:0.20 / mixed_ref=1 / me_range=32 / chroma_me=1 / trellis=2 / 8x8dct=1 / cqm=0 / deadzone=21,11 / fast_pskip=0 / chroma_qp_offset=-3 / threads=3 / lookahead_threads=1 / sliced_threads=0 / nr=0 / decimate=0 / interlaced=0 / bluray_compat=0 / constrained_intra=0 / bframes=11 / b_pyramid=2 / b_adapt=2 / b_bias=0 / direct=3 / weightb=1 / open_gop=0 / weightp=2 / keyint=240 / keyint_min=23 / scenecut=40 / intra_refresh=0 / rc_lookahead=40 / rc=2pass / mbtree=0 / bitrate=3066 / ratetol=1.0 / qcomp=0.60 / qpmin=0 / qpmax=69 / qpstep=4 / cplxblur=20.0 / qblur=0.5 / vbv_maxrate=50000 / vbv_bufsize=50000 / nal_hrd=none / ip_ratio=1.40 / pb_ratio=1.30 / aq=1:1.00
Язык : English
Default : Да
Forced : Да
Аудио #1
Идентификатор : 2
Формат : AC-3
Формат/Информация : Audio Coding 3
Расширение режима : CM (complete main)
Параметр Endianness формата : Big
Идентификатор кодека : A_AC3
Продолжительность : 1 ч. 26 м.
Вид битрейта : Постоянный
Битрейт : 192 Кбит/сек
Каналы : 2 канала
Расположение каналов : Front: L R
Частота : 48,0 КГц
Битовая глубина : 16 бит
Метод сжатия : С потерями
Размер потока : 119 Мбайт (4%)
Заголовок : Дублированный [Первый канал] AC3 2.0 @ 192 kbps
Язык : Russian
Default : Да
Forced : Да
Аудио #2
Идентификатор : 3
Формат : AC-3
Формат/Информация : Audio Coding 3
Расширение режима : CM (complete main)
Параметр Endianness формата : Big
Идентификатор кодека : A_AC3
Продолжительность : 1 ч. 26 м.
Вид битрейта : Постоянный
Битрейт : 192 Кбит/сек
Каналы : 2 канала
Расположение каналов : Front: L R
Частота : 48,0 КГц
Битовая глубина : 16 бит
Метод сжатия : С потерями
Размер потока : 119 Мбайт (4%)
Заголовок : Дублированный [Варус Видео] AC3 2.0 @ 192 kbps
Язык : Russian
Default : Нет
Forced : Нет
Аудио #3
Идентификатор : 4
Формат : AC-3
Формат/Информация : Audio Coding 3
Расширение режима : CM (complete main)
Параметр Endianness формата : Big
Идентификатор кодека : A_AC3
Продолжительность : 1 ч. 26 м.
Вид битрейта : Постоянный
Битрейт : 384 Кбит/сек
Каналы : 6 каналов
Расположение каналов : Front: L C R, Side: L R, LFE
Частота : 48,0 КГц
Битовая глубина : 16 бит
Метод сжатия : С потерями
Размер потока : 238 Мбайт (8%)
Заголовок : Многоголосый [20th Century Fox] AC3 5.1 @ 384 kbps
Язык : Russian
Default : Нет
Forced : Нет
Аудио #4
Идентификатор : 5
Формат : AC-3
Формат/Информация : Audio Coding 3
Расширение режима : CM (complete main)
Параметр Endianness формата : Big
Идентификатор кодека : A_AC3
Продолжительность : 1 ч. 26 м.
Вид битрейта : Постоянный
Битрейт : 384 Кбит/сек
Каналы : 6 каналов
Расположение каналов : Front: L C R, Side: L R, LFE
Частота : 48,0 КГц
Битовая глубина : 16 бит
Метод сжатия : С потерями
Размер потока : 238 Мбайт (8%)
Заголовок : Авторский [Юрий Живов] AC3 5.1 @ 384 kbps
Язык : Russian
Default : Нет
Forced : Нет
Аудио #5
Идентификатор : 6
Формат : AC-3
Формат/Информация : Audio Coding 3
Расширение режима : CM (complete main)
Параметр Endianness формата : Big
Идентификатор кодека : A_AC3
Продолжительность : 1 ч. 26 м.
Вид битрейта : Постоянный
Битрейт : 192 Кбит/сек
Каналы : 2 канала
Расположение каналов : Front: L R
Частота : 48,0 КГц
Битовая глубина : 16 бит
Метод сжатия : С потерями
Размер потока : 119 Мбайт (4%)
Заголовок : Авторский [Алексей Михалев] AC3 2.0 @ 192 kbps
Язык : Russian
Default : Нет
Forced : Нет
Аудио #6
Идентификатор : 7
Формат : AC-3
Формат/Информация : Audio Coding 3
Расширение режима : CM (complete main)
Параметр Endianness формата : Big
Идентификатор кодека : A_AC3
Продолжительность : 1 ч. 26 м.
Вид битрейта : Постоянный
Битрейт : 384 Кбит/сек
Каналы : 6 каналов
Расположение каналов : Front: L C R, Side: L R, LFE
Частота : 48,0 КГц
Битовая глубина : 16 бит
Метод сжатия : С потерями
Размер потока : 238 Мбайт (8%)
Заголовок : AC3 5.1 @ 384 kbps
Язык : English
Default : Нет
Forced : Нет
Текст #1
Идентификатор : 8
Формат : UTF-8
Идентификатор кодека : S_TEXT/UTF8
Идентификатор кодека/Информация : UTF-8 Plain Text
Язык : Russian
Default : Нет
Forced : Нет
Текст #2
Идентификатор : 9
Формат : UTF-8
Идентификатор кодека : S_TEXT/UTF8
Идентификатор кодека/Информация : UTF-8 Plain Text
Заголовок : Парыгин
Язык : Russian
Default : Нет
Forced : Нет
Текст #3
Идентификатор : 10
Формат : UTF-8
Идентификатор кодека : S_TEXT/UTF8
Идентификатор кодека/Информация : UTF-8 Plain Text
Язык : English
Default : Нет
Forced : Нет
Текст #4
Идентификатор : 11
Формат : UTF-8
Идентификатор кодека : S_TEXT/UTF8
Идентификатор кодека/Информация : UTF-8 Plain Text
Заголовок : SDH
Язык : English
Default : Нет
Forced : Нет
Меню
00:00:00.000 : еn:Mаin Titlеs
00:01:50.110 : еn:"Follow Your Hеаrt" Intro
00:04:15.881 : еn:Onсе Upon а Timе
00:05:40.590 : еn:"Thumbеlinа"
00:12:54.941 : еn:а Fаiry Prinсе
00:17:03.731 : еn:Going for а Spin
00:22:30.266 : еn:Kidnаppеd
00:26:29.922 : еn:"On thе Roаd"
00:34:35.532 : еn:"Follow Your Hеаrt"
00:37:59.444 : еn:With thе Toаds
00:38:55.917 : еn:Mr. Bееtlе
00:41:04.087 : еn:"Yеr Bеаutiful Bаby"
00:43:16.761 : еn:"Show Us Your Wings"
00:49:19.707 : еn:Mr. Bееtlе's Idеа
00:52:17.384 : еn:Thе Prinсе in Iсе
00:54:50.120 : еn:"Soon"
00:56:41.106 : еn:Undеr Ground
01:06:23.646 : еn:"Mаrry thе Molе"
01:16:44.725 : еn:Thе Vаlе of thе Fаiriеs
01:21:07.863 : еn:еnd Titlеs



Релиз от:



   Похожие торренты   Торрент   Размер 
В этой теме нет новых непрочитанных сообщений. Дюймовочка / Thumbelina (1994) BDRip от HQCLUB

71 | 28

1.45 ГБ

В этой теме нет новых непрочитанных сообщений. Дюймовочка / Thumbelina (1994) BDRip от HELLYWOOD

48 | 5

1.45 ГБ

В этой теме нет новых непрочитанных сообщений. Дюймовочка / Thumbelina (1994) BDRip 1080p

16 | 7

4.35 ГБ

В этой теме нет новых непрочитанных сообщений. Дюймовочка / Thumbelina (1994) BDRip-AVC | iPad

8 | 3

2.69 ГБ

В этой теме нет новых непрочитанных сообщений. Дюймовочка / Thumbelina (1994) BDRip 720p от HQCLUB

0 | 4

7.45 ГБ

В этой теме нет новых непрочитанных сообщений. Дюймовочка / Thumbelina (1994) DVDRip

7 | 6

1.37 ГБ

В этой теме нет новых непрочитанных сообщений. Дюймовочка / Thumbelina (1994) Blu-Ray Remux

21 | 13

19.99 ГБ




Вы не можете начинать темы
Вы не можете отвечать на сообщения
Вы не можете редактировать свои сообщения
Вы не можете удалять свои сообщения
Вы не можете добавлять вложения

Перейти:  
Для Мосгорсуда, Роскомнадзора и рекламодателей: mosgorsud-torrent[собачка]yandex.ru
 Вход
ppkBB3cker v.2 © 2008-2014 @ PPK
[ Time : 0.043s | 15 Queries | GZIP : Off ]

Торрент трекер RUTOR.IN, Не можете зайти на rutor.org? Какой новый адрес рутор? Какое зеркало рутор? Не работает rutor.org и зеркала? Тогда наш торрент специально для вас. Rutor.in неофициальное зеркало rutor. В случае если у Вас заблокирован rutor или вдруг Вы не можете на него зайти, то Вы без труда сможете скачать бесплатно и без рекламы последние новинки кино, игр, сериалов и прочего у нас, на Rutor.in. Не нужно использовать прокси, чтобы зайти на рутор, достаточно воспользоваться нашим ресурсом. Все новые фильмы, игры, сериалы, книги и музыка за 2013 и 2014 годы через торрент бесплатно. Скачивайте фильмы в хорошем качестве, игры для пк, xbox, playstation без регистрации. У нас вы найдете новые Зарубежные сериалы и Русские сериалы 2013, 2014, 2015 годов. Оставайтесь с нами, качайте любимые фильмы, игры, сериалы, книги и музыку.