img image001 image001 image001 image001 image001 image001 image001 image001 image001 image001 image001 image001 image001 image001 image001

Planets Sun Sun Sun
Статистика раздачи
Автор: Nickolas3434 | Размер: 699.97 МБ | Добавлен: 27 авг 2015
Раздают: 213    Качают: 28
Скачать торрент
Скачать торрент
Описание торрента

СообщениеДобавлено: 27 авг 2015 

Информация о фильме
Название: Миньоны
Оригинальное название: Minions
Год выхода: 2015
Жанр: мультфильм, комедия, семейный
Режиссер: Кайл Балда, Пьер Соффин
В ролях: Сандра Буллок, Джон Хэмм, Майкл Китон, Эллисон Дженни, Стив Куган, Дженнифер Сондерс, Джеффри Раш, Стив Карелл, Пьер Соффин, Кэти Миксон
О фильме: Миньоны живут на планете на пару миллионов лет дольше нас. У них одна навязчивая идея — служить самой Гадкой личности из имеющихся в наличии. Динозавры, фараоны, Дракула, Наполеон — все они оказались недолговечны. И тогда миньоны рванули в Нью-Йорк. Их ждут деньги, власть, роковая суперзлодейка Скарлет Оверкилл и, конечно же, вкуснейшая «банана»! Во всяком случае, так им кажется.
Выпущено: США / Illumination Entertainment
Продолжительность: 01:30:51
Озвучивание: Дублированное [звук c TS]
Примечание: Имеются вшитые корейские субтитры
Файл
Формат: AVI (XviD)
Качество: WEBRip
Видео: 940 kb/s, 640x352
Звук: AC3, 128 kb/s (2 ch)
Размер: 700 MB
Скачать: Сэмпл


General
Complete name : C:UsersuserDesktopMiniony.2015.D.WEBRip.700Mb.avi
Format : AVI
Format/Info : Audio Video Interleave
File size : 700 MiB
Duration : 1h 30mn
Overall bit rate : 1 077 Kbps
Writing application : VirtualDubMod 1.5.10.2 (build 2540/release)
Writing library : VirtualDubMod build 2540/release
Video
ID : 0
Format : MPEG-4 Visual
Format profile : Advanced Simple@L5
Format settings, BVOP : 2
Format settings, QPel : No
Format settings, GMC : No warppoints
Format settings, Matrix : Default (MPEG)
Codec ID : XVID
Codec ID/Hint : XviD
Duration : 1h 30mn
Bit rate : 940 Kbps
Width : 640 pixels
Height : 352 pixels
Display aspect ratio : 16:9
Frame rate : 24.000 fps
Color space : YUV
Chroma subsampling : 4:2:0
Bit depth : 8 bits
Scan type : Progressive
Compression mode : Lossy
Bits/(Pixel*Frame) : 0.174
Stream size : 611 MiB (87%)
Writing library : XviD 1.2.1 (UTC 2008-12-04)
Audio
ID : 1
Format : AC-3
Format/Info : Audio Coding 3
Mode extension : CM (complete main)
Format settings, Endianness : Big
Codec ID : 2000
Duration : 1h 30mn
Bit rate mode : Constant
Bit rate : 128 Kbps
Channel(s) : 2 channels
Channel positions : Front: L R
Sampling rate : 48.0 KHz
Compression mode : Lossy
Stream size : 83.2 MiB (12%)
Alignment : Split accross interleaves
Interleave, duration : 42 ms (1.00 video frame)
Interleave, preload duration : 500 ms













   Похожие торренты   Торрент   Размер 
В этой теме нет новых непрочитанных сообщений. Миньоны / Minions (2015) WEBRip | Звук c CAMRip

3574 | 304

1.37 ГБ

В этой теме нет новых непрочитанных сообщений. Миньоны / Minions (2015) WEBRip 720p | Звук c CAMRip

5565 | 491

2.47 ГБ

В этой теме нет новых непрочитанных сообщений. Миньоны / Minions (2015) HDTVRip | Звук c CAMRip

3123 | 349

1.37 ГБ

В этой теме нет новых непрочитанных сообщений. Миньоны / Minions (2015) CAMRip

808 | 64

746.6 МБ

В этой теме нет новых непрочитанных сообщений. Миньоны / Minions (2015) CAMRip

12784 | 349

1.46 ГБ

В этой теме нет новых непрочитанных сообщений. Миньоны / Minions (2015) CAMRip *PROPER* V2

2754 | 122

1.17 ГБ

В этой теме нет новых непрочитанных сообщений. Миньоны / Minions (2015) CAMRip *PROPER*

3528 | 132

1.28 ГБ




Вы не можете начинать темы
Вы не можете отвечать на сообщения
Вы не можете редактировать свои сообщения
Вы не можете удалять свои сообщения
Вы не можете добавлять вложения

Перейти:  
Для Мосгорсуда, Роскомнадзора и рекламодателей: mosgorsud-torrent[собачка]yandex.ru
 Вход
ppkBB3cker v.2 © 2008-2014 @ PPK
[ Time : 0.576s | 15 Queries | GZIP : On ]

Торрент трекер RUTOR.IN, Не можете зайти на rutor.org? Какой новый адрес рутор? Какое зеркало рутор? Не работает rutor.org и зеркала? Тогда наш торрент специально для вас. Rutor.in неофициальное зеркало rutor. В случае если у Вас заблокирован rutor или вдруг Вы не можете на него зайти, то Вы без труда сможете скачать бесплатно и без рекламы последние новинки кино, игр, сериалов и прочего у нас, на Rutor.in. Не нужно использовать прокси, чтобы зайти на рутор, достаточно воспользоваться нашим ресурсом. Все новые фильмы, игры, сериалы, книги и музыка за 2013 и 2014 годы через торрент бесплатно. Скачивайте фильмы в хорошем качестве, игры для пк, xbox, playstation без регистрации. У нас вы найдете новые Зарубежные сериалы и Русские сериалы 2013, 2014, 2015 годов. Оставайтесь с нами, качайте любимые фильмы, игры, сериалы, книги и музыку.