img image001 image001 image001 image001 image001 image001 image001 image001 image001 image001 image001 image001 image001 image001 image001

Planets Sun Sun Sun
Статистика раздачи
Автор: Nickolas3434 | Размер: 2.54 ГБ | Добавлен: 29 авг 2015
Раздают: 63    Качают: 432
Скачать торрент
Скачать торрент
Описание торрента

СообщениеДобавлено: 29 авг 2015 


Информация о фильме
Название: The Beatles: Жёлтая подводная лодка
Оригинальное название: The Beatles: Yellow Submarine
Год выхода: 1968
Жанр: мультфильм, мюзикл, комедия, приключения
Режиссер: Джордж Даннинг / George Dunning
В ролях: Пол Анджелис, Джон Клайв, Дик Эмери, Джефри Хьюз, Лэнс Персивал, Питер Бэттен, Джордж Харрисон, Джон Леннон, Пол МакКартни
О фильме:
Мультипликационные персонажи, сильно напоминающие знаменитую четверку «Битлз», поют и совершают путешествие на желтой подводной лодке по фантастической стране Пепперлэнд, борясь за любовь, дружбу, цветы и музыку против злых и плохих уродцев — синих вреднючек.

Релиз от: anton210896
Страна: Великобритания, США
Продолжительность: 01:29:41
Перевод: профессиональный (одноголосый закадровый) (ОРТ) + оригинал (английский)
Субтитры: русские (полные, форсированные - на песни), английские (отдельно в раздаче)
Отдельно в раздаче:
+ Профессиональный (одноголосый закадровый) (Максим Жолобов)
+ Профессиональный (одноголосый закадровый) (DVD-Магия)
+ Профессиональный (одноголосый закадровый) (Деваль-Видео) (по переводу ОРТ)
+ Авторский (одноголосый закадровый) (Сергей Визгунов)
+ Авторский (одноголосый закадровый) (Андрей Гаврилов) (VHS)
Файл
Формат: AVI
Качество: BDRip (Исходник: The.Beatles.Yellow.Submarine.1968.BDRemux.1080p)
Видео: 720x432 (1.67:1), 23.976 fps, XviD MPEG-4 ~1733 kbps avg, 0.23 bit/pixel
Аудио 1: Русский: 48 kHz, AC3 Dolby Digital, 2/0 (L,R) ch, ~192 kbps | ОРТ
Аудио 2: Английский: 48 kHz, AC3 Dolby Digital, 2/0 (L,R) ch, ~384 kbps
Аудио 3: Русский: 48 kHz, AC3 Dolby Digital, 3/2 (L,C,R,l,r) ch, ~384 kbps | Максим Жолобов (отдельно)
Аудио 4: Русский: 48 kHz, AC3 Dolby Digital, 3/2 (L,C,R,l,r) ch, ~384 kbps | DVD-Магия (отдельно)
Аудио 5: Русский: 48 kHz, AC3 Dolby Digital, 3/2 (L,C,R,l,r) ch, ~384 kbps | Деваль-Видео (по переводу ОРТ) (отдельно)
Аудио 6: Русский: 48 kHz, AC3 Dolby Digital, 3/2 (L,C,R,l,r) ch, ~384 kbps | Сергей Визгунов (отдельно)
Аудио 7: Русский: 48 kHz, AC3 Dolby Digital, 2/0 (L,R) ch, ~192 kbps | Андрей Гаврилов (VHS) (отдельно)
Размер файла: 1,46 ГБ
Семпл
Общее
Полное имя : E:Готовые рипыThe.Beatles.Yellow.Submarine.1968.DUAL.BDRip.XviD.AC3.by_anton210896The.Beatles.Yellow.Submarine.1968.DUAL.BDRip.XviD.AC3.by_anton210896.avi
Формат : AVI
Формат/Информация : Audio Video Interleave
Размер файла : 1,46 Гбайт
Продолжительность : 1 ч. 29 м.
Общий поток : 2324 Кбит/сек
Программа кодирования : VirtualDubMod 1.5.10.2 (build 2540/release)
Библиотека кодирования : VirtualDubMod build 2540/release
Видео
Идентификатор : 0
Формат : MPEG-4 Visual
Профиль формата : Advanced Simple@L5
Параметр BVOP формата : 2
Параметр QPel формата : Нет
Параметр GMC формата : Без точки перехода
Параметр матрицы формата : Default (H.263)
Режим смешивания : Сжатый битовый поток
Идентификатор кодека : XVID
Идентификатор кодека/Подсказка : XviD
Продолжительность : 1 ч. 29 м.
Битрейт : 1734 Кбит/сек
Ширина : 720 пикселей
Высота : 432 пикселя
Соотношение сторон : 1,667
Частота кадров : 23,976 кадра/сек
Цветовое пространство : YUV
Субдискретизация насыщенности : 4:2:0
Битовая глубина : 8 бит
Тип развёртки : Прогрессивная
Метод сжатия : С потерями
Бит/(Пиксели*Кадры) : 0.233
Размер потока : 1,09 Гбайт (75%)
Библиотека кодирования : XviD 73
Аудио #1
Идентификатор : 1
Формат : AC-3
Формат/Информация : Audio Coding 3
Расширение режима : CM (complete main)
Параметр Endianness формата : Big
Идентификатор кодека : 2000
Продолжительность : 1 ч. 29 м.
Вид битрейта : Постоянный
Битрейт : 192 Кбит/сек
Каналы : 2 канала
Расположение каналов : Front: L R
Частота : 48,0 КГц
Битовая глубина : 16 бит
Метод сжатия : С потерями
Размер потока : 123 Мбайт (8%)
Выравнивание : Разделение по промежуткам
Продолжительность промежутка : 42 мс. (1,00 видеокадр)
Время предзагрузки промежутка : 500 мс.
Аудио #2
Идентификатор : 2
Формат : AC-3
Формат/Информация : Audio Coding 3
Расширение режима : CM (complete main)
Параметр Endianness формата : Big
Идентификатор кодека : 2000
Продолжительность : 1 ч. 29 м.
Вид битрейта : Постоянный
Битрейт : 384 Кбит/сек
Каналы : 2 канала
Расположение каналов : Front: L R
Частота : 48,0 КГц
Битовая глубина : 16 бит
Метод сжатия : С потерями
Размер потока : 246 Мбайт (17%)
Выравнивание : Разделение по промежуткам
Продолжительность промежутка : 42 мс. (1,00 видеокадр)
Время предзагрузки промежутка : 500 мс.



   Похожие торренты   Торрент   Размер 
В этой теме нет новых непрочитанных сообщений. Битлз: Жёлтая подводная лодка / The Beatles: Yellow Submarine (1968) BDRip от HQCLUB

74 | 4

1.45 ГБ

В этой теме нет новых непрочитанных сообщений. The Beatles: Желтая подводная лодка / Yellow Submarine (1968) BDRip 1080 от Element team

0 | 2

4.31 ГБ

В этой теме нет новых непрочитанных сообщений. Битлз: Жёлтая подводная лодка / The Beatles: Yellow Submarine (1968) DVDRip от GeneralFilm

10 | 1

704.16 МБ

В этой теме нет новых непрочитанных сообщений. Битлз: Жёлтая подводная лодка / The Beatles: Yellow Submarine (1968) DVDRip - Generalfilm

8 | 2

1.47 ГБ

В этой теме нет новых непрочитанных сообщений. Атомная подводная лодка / The Atomic Submarine (1960) DVDRip от GalVid

13 | 4

734.97 МБ

В этой теме нет новых непрочитанных сообщений. Подводная лодка / Das Boot (1981) BDRip 1080p | P

181 | 17

38.12 ГБ

В этой теме нет новых непрочитанных сообщений. Подводная лодка / Das Boot (1981) BDRip 1080p | Director's Cut

97 | 7

11.55 ГБ




Вы не можете начинать темы
Вы не можете отвечать на сообщения
Вы не можете редактировать свои сообщения
Вы не можете удалять свои сообщения
Вы не можете добавлять вложения

Перейти:  
Для Мосгорсуда, Роскомнадзора и рекламодателей: mosgorsud-torrent[собачка]yandex.ru
 Вход
ppkBB3cker v.2 © 2008-2014 @ PPK
[ Time : 0.096s | 14 Queries | GZIP : On ]

Торрент трекер RUTOR.IN, Не можете зайти на rutor.org? Какой новый адрес рутор? Какое зеркало рутор? Не работает rutor.org и зеркала? Тогда наш торрент специально для вас. Rutor.in неофициальное зеркало rutor. В случае если у Вас заблокирован rutor или вдруг Вы не можете на него зайти, то Вы без труда сможете скачать бесплатно и без рекламы последние новинки кино, игр, сериалов и прочего у нас, на Rutor.in. Не нужно использовать прокси, чтобы зайти на рутор, достаточно воспользоваться нашим ресурсом. Все новые фильмы, игры, сериалы, книги и музыка за 2013 и 2014 годы через торрент бесплатно. Скачивайте фильмы в хорошем качестве, игры для пк, xbox, playstation без регистрации. У нас вы найдете новые Зарубежные сериалы и Русские сериалы 2013, 2014, 2015 годов. Оставайтесь с нами, качайте любимые фильмы, игры, сериалы, книги и музыку.