img image001 image001 image001 image001 image001 image001 image001 image001 image001 image001 image001 image001 image001 image001 image001

Planets Sun Sun Sun
Статистика раздачи
Автор: Nickolas3434 | Размер: 3.71 ГБ | Добавлен: 01 сен 2015
Раздают: 348    Качают: 39
Скачать торрент
Скачать торрент
Описание торрента

СообщениеДобавлено: 01 сен 2015 


Информация о фильме
Название: Синдбад: Легенда семи морей
Оригинальное название: Sinbad: Legend of the Seven Seas
Год выхода: 2003
Жанр: мультфильм, фэнтези, драма, мелодрама, комедия, приключения, семейный
Режиссер: Патрик Гилмор, Тим Джонсон
В ролях: Брэд Питт, Кэтрин Зета-Джонс, Мишель Пфайффер, Джозеф Файнс, Деннис Хейсбёрт, Тимоти Уэст, Адриано Джаннини, Раман Хюи, Чунг Чан, Джим Каммингс
Роли дублировали: Денис Беспалый, Елена Соловьева, Елена Ивасишина, Андрей Градов, Георгий Мартиросян
Описание: Мультфильм рассказывает об одном из многочисленных приключений известного аравийского моряка Синдбада. Приключение начинается тогда, когда Эрис, богиня Хаоса, крадет Книгу Мира, подставив тем самым Синдбада и сделав из него преступника.
Намеревающийся доказать свою невиновность, а также спасти жизнь своего лучшего друга Протеуса Шейпершифера, моряк отправляется в царство Эрис, кишащее ужасными монстрами, такими как гигантские скорпионы, змеи и 40-футовые птицы, сделанные из льда и снега.
Даже если Синдбад сможет обезвредить всех этих чудовищ, ему также придется иметь дело с магией Эрис, обладающей эффектом Яблока Раздора, которое имеет способность превратить друзей во врагов, когда оно брошено посреди них. Синдбаду помогает во всем Марина, подруга Протеуса.

Страна: США
Продолжительность: 01:21:48
Перевод #1: Профессиональный (Дублированный) (R5)
Перевод #2: Профессиональный (Многоголосый, Закадровый)
Перевод #3: Греческий
Перевод #4: Польский
Перевод #5: Английский (Оригинал)
Файл
Формат: MKV
Качество: WEB-DL 720p (Источник: Sinbad.Legend.of.the.Seven Seas.2003.720p.WEB-DL.H264-CtrlHD [PublicHD])
Видео: 1278x720 (16:9), 25.000 fps, 4308 kbps, 0.187 bit/pixel
Аудио #1: AC-3, 6 ch, 384 kbps (Дублированный)
Аудио #2: AC-3, 6 ch, 448 kbps (Многоголосый)
Аудио #3: AC-3, 6 ch, 384 kbps (Греческий)
Аудио #4: AC-3, 6 ch, 384 kbps (Польский)
Аудио #5: AC-3, 6 ch, 448 kbps (Английский Оригинал)
Субтитры: Русские (Полные), Польские (Полные), Греческие (Полные), Эстонские (Полные), Латышские (Полные), Литовские (Полные), Английские (SDH), Русские (Комментарии Режиссера), Польские (Комментарии Режиссера), Английские (Комментарии Режиссера)

General
Unique ID : 251482855432994299134161439714735145227 (0xBD31D60FC040BA68B8F43507B6A5C10B)
Complete name : Sinbad.Legend.Of.The.Seven.Seas.2003.WEB-DL.720p.D.P.mkv
Format : Matroska
Format version : Version 2
File size : 3.71 GiB
Duration : 1h 21mn
Overall bit rate : 6 485 Kbps
Movie name : Синдбад: Легенда Семи Морей / Sinbad: Legend Of The Seven Seas (2003) WEB-DL 720p (CtrlHD)
Encoded date : UTC 2015-08-31 10:56:53
Writing application : mkvmerge v5.6.0 ('Kenya Kane') built on May 27 2012 16:44:04
Writing library : libebml v1.2.3 + libmatroska v1.3.0
Attachements : Cover.jpg
Video
ID : 1
Format : AVC
Format/Info : Advanced Video Codec
Format profile : High@L3.1
Format settings, CABAC : No
Format settings, ReFrames : 2 frames
Codec ID : V_MPEG4/ISO/AVC
Duration : 1h 21mn
Bit rate : 4 308 Kbps
Width : 1 278 pixels
Height : 720 pixels
Display aspect ratio : 16:9
Frame rate mode : Constant
Frame rate : 25.000 fps
Color space : YUV
Chroma subsampling : 4:2:0
Bit depth : 8 bits
Scan type : Progressive
Bits/(Pixel*Frame) : 0.187
Stream size : 2.46 GiB (66%)
Title : Синдбад: Легенда Семи Морей / Sinbad: Legend Of The Seven Seas (2003) WEB-DL 720p (CtrlHD)
Language : English
Default : Yes
Forced : No
Color primaries : BT.709
Transfer characteristics : BT.709
Matrix coefficients : BT.709
Color range : Limited
Audio #1
ID : 2
Format : AC-3
Format/Info : Audio Coding 3
Mode extension : CM (complete main)
Format settings, Endianness : Big
Codec ID : A_AC3
Duration : 1h 21mn
Bit rate mode : Constant
Bit rate : 384 Kbps
Channel(s) : 6 channels
Channel positions : Front: L C R, Side: L R, LFE
Sampling rate : 48.0 KHz
Bit depth : 16 bits
Compression mode : Lossy
Stream size : 225 MiB (6%)
Title : Дублированный 5.1 (R5)
Language : Russian
Default : Yes
Forced : No
Audio #2
ID : 3
Format : AC-3
Format/Info : Audio Coding 3
Mode extension : CM (complete main)
Format settings, Endianness : Big
Codec ID : A_AC3
Duration : 1h 21mn
Bit rate mode : Constant
Bit rate : 448 Kbps
Channel(s) : 6 channels
Channel positions : Front: L C R, Side: L R, LFE
Sampling rate : 48.0 KHz
Bit depth : 16 bits
Compression mode : Lossy
Stream size : 262 MiB (7%)
Title : Многоголосый 5.1
Language : Russian
Default : No
Forced : No
Audio #3
ID : 4
Format : AC-3
Format/Info : Audio Coding 3
Mode extension : CM (complete main)
Format settings, Endianness : Big
Codec ID : A_AC3
Duration : 1h 21mn
Bit rate mode : Constant
Bit rate : 384 Kbps
Channel(s) : 6 channels
Channel positions : Front: L C R, Side: L R, LFE
Sampling rate : 48.0 KHz
Bit depth : 16 bits
Compression mode : Lossy
Stream size : 225 MiB (6%)
Title : Греческий 5.1
Language : Greek
Default : No
Forced : No
Audio #4
ID : 5
Format : AC-3
Format/Info : Audio Coding 3
Mode extension : CM (complete main)
Format settings, Endianness : Big
Codec ID : A_AC3
Duration : 1h 21mn
Bit rate mode : Constant
Bit rate : 384 Kbps
Channel(s) : 6 channels
Channel positions : Front: L C R, Side: L R, LFE
Sampling rate : 48.0 KHz
Bit depth : 16 bits
Compression mode : Lossy
Stream size : 225 MiB (6%)
Title : Польский 5.1
Language : Polish
Default : No
Forced : No
Audio #5
ID : 6
Format : AC-3
Format/Info : Audio Coding 3
Mode extension : CM (complete main)
Format settings, Endianness : Big
Codec ID : A_AC3
Duration : 1h 21mn
Bit rate mode : Constant
Bit rate : 448 Kbps
Channel(s) : 6 channels
Channel positions : Front: L C R, Side: L R, LFE
Sampling rate : 48.0 KHz
Bit depth : 16 bits
Compression mode : Lossy
Stream size : 262 MiB (7%)
Title : Английский 5.1 (Оригинал)
Language : English
Default : No
Forced : No
Text #1
ID : 7
Format : VobSub
Muxing mode : zlib
Codec ID : S_VOBSUB
Codec ID/Info : The same subtitle format used on DVDs
Title : Русские (Полные)
Language : Russian
Default : No
Forced : No
Text #2
ID : 8
Format : VobSub
Muxing mode : zlib
Codec ID : S_VOBSUB
Codec ID/Info : The same subtitle format used on DVDs
Title : Польские (Полные)
Language : Polish
Default : No
Forced : No
Text #3
ID : 9
Format : VobSub
Muxing mode : zlib
Codec ID : S_VOBSUB
Codec ID/Info : The same subtitle format used on DVDs
Title : Греческие (Полные)
Language : Greek
Default : No
Forced : No
Text #4
ID : 10
Format : VobSub
Muxing mode : zlib
Codec ID : S_VOBSUB
Codec ID/Info : The same subtitle format used on DVDs
Title : Эстонские (Полные)
Language : Estonian
Default : No
Forced : No
Text #5
ID : 11
Format : VobSub
Muxing mode : zlib
Codec ID : S_VOBSUB
Codec ID/Info : The same subtitle format used on DVDs
Title : Латышские (Полные)
Language : Latvian
Default : No
Forced : No
Text #6
ID : 12
Format : VobSub
Muxing mode : zlib
Codec ID : S_VOBSUB
Codec ID/Info : The same subtitle format used on DVDs
Title : Литовские (Полные)
Language : Lithuanian
Default : No
Forced : No
Text #7
ID : 13
Format : VobSub
Muxing mode : zlib
Codec ID : S_VOBSUB
Codec ID/Info : The same subtitle format used on DVDs
Title : Английские (SDH)
Language : English
Default : No
Forced : No
Text #8
ID : 14
Format : VobSub
Muxing mode : zlib
Codec ID : S_VOBSUB
Codec ID/Info : The same subtitle format used on DVDs
Title : Русские (Комментарии Режиссера)
Language : Russian
Default : No
Forced : No
Text #9
ID : 15
Format : VobSub
Muxing mode : zlib
Codec ID : S_VOBSUB
Codec ID/Info : The same subtitle format used on DVDs
Title : Польские (Комментарии Режиссера)
Language : Polish
Default : No
Forced : No
Text #10
ID : 16
Format : VobSub
Muxing mode : zlib
Codec ID : S_VOBSUB
Codec ID/Info : The same subtitle format used on DVDs
Title : Английские (Комментарии Режиссера)
Language : English
Default : No
Forced : No



   Похожие торренты   Торрент   Размер 
В этой теме нет новых непрочитанных сообщений. Синдбад: Легенда Семи Морей / Sinbad: Legend of the Seven Seas (2003) PC

55 | 3

374.07 МБ

В этой теме нет новых непрочитанных сообщений. Синдбад: Легенда семи морей / Sinbad: Legend of the Seven Seas (2003) DVDRip-AVC

209 | 21

1.46 ГБ

В этой теме нет новых непрочитанных сообщений. Синдбад: Легенда семи морей / Sinbad: Legend of the Seven Seas (2003) DVD9

14 | 4

7.64 ГБ

В этой теме нет новых непрочитанных сообщений. Синдбад: Легенда семи морей / Sinbad: Legend Of Seven Seas (2003) HDTV

59 | 11

5.51 ГБ

В этой теме нет новых непрочитанных сообщений. Синдбад: Легенда семи морей / Sinbad: Legend of the Seven Seas (2003) HDTVRip

428 | 11

747.04 МБ

В этой теме нет новых непрочитанных сообщений. Синдбад: Легенда семи морей / Sinbad: Legend of the Seven Seas (2003) WEBRip 1080p | D, P, A

0 | 0

4.71 ГБ

В этой теме нет новых непрочитанных сообщений. Синдбад: Легенда семи морей / Sinbad of the Seven Seas (1989) BDRip-AVC

27 | 16

2.8 ГБ




Вы не можете начинать темы
Вы не можете отвечать на сообщения
Вы не можете редактировать свои сообщения
Вы не можете удалять свои сообщения
Вы не можете добавлять вложения

Перейти:  
Для Мосгорсуда, Роскомнадзора и рекламодателей: mosgorsud-torrent[собачка]yandex.ru
 Вход
ppkBB3cker v.2 © 2008-2014 @ PPK
[ Time : 0.029s | 14 Queries | GZIP : Off ]

Торрент трекер RUTOR.IN, Не можете зайти на rutor.org? Какой новый адрес рутор? Какое зеркало рутор? Не работает rutor.org и зеркала? Тогда наш торрент специально для вас. Rutor.in неофициальное зеркало rutor. В случае если у Вас заблокирован rutor или вдруг Вы не можете на него зайти, то Вы без труда сможете скачать бесплатно и без рекламы последние новинки кино, игр, сериалов и прочего у нас, на Rutor.in. Не нужно использовать прокси, чтобы зайти на рутор, достаточно воспользоваться нашим ресурсом. Все новые фильмы, игры, сериалы, книги и музыка за 2013 и 2014 годы через торрент бесплатно. Скачивайте фильмы в хорошем качестве, игры для пк, xbox, playstation без регистрации. У нас вы найдете новые Зарубежные сериалы и Русские сериалы 2013, 2014, 2015 годов. Оставайтесь с нами, качайте любимые фильмы, игры, сериалы, книги и музыку.