img image001 image001 image001 image001 image001 image001 image001 image001 image001 image001 image001 image001 image001 image001 image001

Planets Sun Sun Sun
Статистика раздачи
Автор: Nickolas3434 | Размер: 4.15 ГБ | Добавлен: 01 сен 2015
Раздают: 140    Качают: 42
Скачать торрент
Скачать торрент
Описание торрента

СообщениеДобавлено: 01 сен 2015 


Страна: США
Жанр: мультфильм, комедия
Год выпуска: 1997
Продолжительность: ~00:22:00
Перевод: Профессиональный (двухголосый закадровый)x2, Авторский (одноголосый закадровый)
Cубтитры: есть
Оригинальная аудиодорожка: английский
Режиссер: Трей Паркер, Мэтт Стоун
В ролях: Трей Паркер, Мэтт Стоун, Мона Маршалл, Эйприл Стюарт, Айзек Хейз, Элиза Шнайдер, Эдриан Бирд, Мэри Кэй Бергман, Дженнифер Хауэлл, Кайл Маккаллок
Описание: Cтранноватые истории из жизни нескольких третьеклашек из маленького городка Саус Парк в штате Колорадо. Это комедия с элементами гротеска, фарса, пародии, обильно сдобренная музыкой и той самой плохо определяемой словами чертовщиной…

Качество видео: WEB-DLRip 720p
Формат видео: MKV
Видео:
1-ая серия: AVC, 960x720 pixels, 4:3, 23.976 fps, 1 619 Kbps
2-ая и последующие серии: AVC, 1280x720, 16:9, 23.976 fps, 1 064 Kbps
Аудио 1: Russian AС3 2ch 48kHz 192Kbps | Paramount Comedy
Аудио 2: Russian AС3 2ch 48kHz 192Kbps | MTV Russia
Аудио 3: Russian AС3 2ch 48kHz 192Kbps | AVO Goblin
Аудио 4: English AAC-LC 2ch 48kHz ~160Kbps | Original
Формат субтитров: softsub (SRT)
General
Unique ID : 182573665431807329668076713845410707065 (0x895A68AFB67DEBC096D762CD449F3679)
Complete name : D:TorrentSouth Park S01 720pSouth.Park.S01E01.Cartman.Gets.an.Anal.Probe.mkv
Format : Matroska
Format version : Version 4 / Version 2
File size : 378 MiB
Duration : 22mn 7s
Overall bit rate : 2 390 Kbps
Encoded date : UTC 2015-08-31 13:08:50
Writing application : mkvmerge v8.2.0 ('World of Adventure') 64bit
Writing library : libebml v1.3.1 + libmatroska v1.4.2
Video
ID : 1
Format : AVC
Format/Info : Advanced Video Codec
Format profile : High@L4.1
Format settings, CABAC : Yes
Format settings, ReFrames : 6 frames
Codec ID : V_MPEG4/ISO/AVC
Duration : 22mn 7s
Width : 960 pixels
Height : 720 pixels
Display aspect ratio : 4:3
Frame rate mode : Constant
Frame rate : 23.976 fps
Color space : YUV
Chroma subsampling : 4:2:0
Bit depth : 8 bits
Scan type : Progressive
Writing library : x264 core 148 r2597M e86f3a1
Encoding settings : cabac=1 / ref=6 / deblock=1:-1:-1 / analyse=0x3:0x133 / me=tesa / subme=11 / psy=1 / psy_rd=1.05:0.15 / mixed_ref=1 / me_range=16 / chroma_me=1 / trellis=2 / 8x8dct=1 / cqm=0 / deadzone=21,11 / fast_pskip=0 / chroma_qp_offset=-3 / threads=14 / lookahead_threads=1 / sliced_threads=0 / nr=0 / decimate=1 / interlaced=0 / bluray_compat=0 / constrained_intra=0 / bframes=6 / b_pyramid=2 / b_adapt=2 / b_bias=0 / direct=3 / weightb=1 / open_gop=0 / weightp=2 / keyint=230 / keyint_min=23 / scenecut=40 / intra_refresh=0 / rc_lookahead=40 / rc=crf / mbtree=1 / crf=18.0 / qcomp=0.70 / qpmin=3 / qpmax=69 / qpstep=4 / ip_ratio=1.40 / aq=2:1.00
Language : English
Default : Yes
Forced : No
Color range : Limited
Color primaries : BT.709
Transfer characteristics : BT.709
Matrix coefficients : BT.709
Audio #1
ID : 2
Format : AC-3
Format/Info : Audio Coding 3
Mode extension : CM (complete main)
Format settings, Endianness : Big
Codec ID : A_AC3
Duration : 22mn 7s
Bit rate mode : Constant
Bit rate : 192 Kbps
Channel(s) : 2 channels
Channel positions : Front: L R
Sampling rate : 48.0 KHz
Bit depth : 16 bits
Compression mode : Lossy
Stream size : 30.4 MiB (8%)
Title : Paramount Comedy
Language : Russian
Default : Yes
Forced : No
Audio #2
ID : 3
Format : AC-3
Format/Info : Audio Coding 3
Mode extension : CM (complete main)
Format settings, Endianness : Big
Codec ID : A_AC3
Duration : 22mn 7s
Bit rate mode : Constant
Bit rate : 192 Kbps
Channel(s) : 2 channels
Channel positions : Front: L R
Sampling rate : 48.0 KHz
Bit depth : 16 bits
Compression mode : Lossy
Stream size : 30.4 MiB (8%)
Title : MTV Russia
Language : Russian
Default : No
Forced : No
Audio #3
ID : 4
Format : AC-3
Format/Info : Audio Coding 3
Mode extension : CM (complete main)
Format settings, Endianness : Big
Codec ID : A_AC3
Duration : 22mn 7s
Bit rate mode : Constant
Bit rate : 192 Kbps
Channel(s) : 2 channels
Channel positions : Front: L R
Sampling rate : 48.0 KHz
Bit depth : 16 bits
Compression mode : Lossy
Stream size : 30.4 MiB (8%)
Title : Goblin
Language : Russian
Default : No
Forced : No
Audio #4
ID : 5
Format : AAC
Format/Info : Advanced Audio Codec
Format profile : LC
Codec ID : A_AAC
Duration : 22mn 7s
Channel(s) : 2 channels
Channel positions : Front: L R
Sampling rate : 48.0 KHz
Compression mode : Lossy
Title : Original
Language : English
Default : No
Forced : No
Text #1
ID : 6
Format : UTF-8
Codec ID : S_TEXT/UTF8
Codec ID/Info : UTF-8 Plain Text
Title : Notabenoid
Language : Russian
Default : Yes
Forced : No
Text #2
ID : 7
Format : UTF-8
Codec ID : S_TEXT/UTF8
Codec ID/Info : UTF-8 Plain Text
Language : English
Default : No
Forced : No
General
Unique ID : 229863413080532701574557956106310413327 (0xACEE1541EB1CAC9B8ADDB38D9F3C6C0F)
Complete name : D:TorrentSouth Park S01 720pSouth.Park.S01E02.Weight.Gain.4000.mkv
Format : Matroska
Format version : Version 4 / Version 2
File size : 287 MiB
Duration : 22mn 7s
Overall bit rate : 1 815 Kbps
Encoded date : UTC 2015-08-31 13:11:10
Writing application : mkvmerge v8.2.0 ('World of Adventure') 64bit
Writing library : libebml v1.3.1 + libmatroska v1.4.2
Video
ID : 1
Format : AVC
Format/Info : Advanced Video Codec
Format profile : High@L4.1
Format settings, CABAC : Yes
Format settings, ReFrames : 6 frames
Codec ID : V_MPEG4/ISO/AVC
Duration : 22mn 7s
Width : 1 280 pixels
Height : 720 pixels
Display aspect ratio : 16:9
Frame rate mode : Constant
Frame rate : 23.976 fps
Color space : YUV
Chroma subsampling : 4:2:0
Bit depth : 8 bits
Scan type : Progressive
Writing library : x264 core 148 r2597M e86f3a1
Encoding settings : cabac=1 / ref=6 / deblock=1:-1:-1 / analyse=0x3:0x133 / me=tesa / subme=11 / psy=1 / psy_rd=1.05:0.15 / mixed_ref=1 / me_range=16 / chroma_me=1 / trellis=2 / 8x8dct=1 / cqm=0 / deadzone=21,11 / fast_pskip=0 / chroma_qp_offset=-3 / threads=14 / lookahead_threads=1 / sliced_threads=0 / nr=0 / decimate=1 / interlaced=0 / bluray_compat=0 / constrained_intra=0 / bframes=6 / b_pyramid=2 / b_adapt=2 / b_bias=0 / direct=3 / weightb=1 / open_gop=0 / weightp=2 / keyint=230 / keyint_min=23 / scenecut=40 / intra_refresh=0 / rc_lookahead=40 / rc=crf / mbtree=1 / crf=18.0 / qcomp=0.70 / qpmin=3 / qpmax=69 / qpstep=4 / ip_ratio=1.40 / aq=2:1.00
Default : Yes
Forced : No
Color range : Limited
Color primaries : BT.709
Transfer characteristics : BT.709
Matrix coefficients : BT.709
Audio #1
ID : 2
Format : AC-3
Format/Info : Audio Coding 3
Mode extension : CM (complete main)
Format settings, Endianness : Big
Codec ID : A_AC3
Duration : 22mn 7s
Bit rate mode : Constant
Bit rate : 192 Kbps
Channel(s) : 2 channels
Channel positions : Front: L R
Sampling rate : 48.0 KHz
Bit depth : 16 bits
Compression mode : Lossy
Stream size : 30.4 MiB (11%)
Title : Paramount Comedy
Language : Russian
Default : Yes
Forced : No
Audio #2
ID : 3
Format : AC-3
Format/Info : Audio Coding 3
Mode extension : CM (complete main)
Format settings, Endianness : Big
Codec ID : A_AC3
Duration : 22mn 7s
Bit rate mode : Constant
Bit rate : 192 Kbps
Channel(s) : 2 channels
Channel positions : Front: L R
Sampling rate : 48.0 KHz
Bit depth : 16 bits
Compression mode : Lossy
Stream size : 30.4 MiB (11%)
Title : MTV Russia
Language : Russian
Default : No
Forced : No
Audio #3
ID : 4
Format : AC-3
Format/Info : Audio Coding 3
Mode extension : CM (complete main)
Format settings, Endianness : Big
Codec ID : A_AC3
Duration : 22mn 7s
Bit rate mode : Constant
Bit rate : 192 Kbps
Channel(s) : 2 channels
Channel positions : Front: L R
Sampling rate : 48.0 KHz
Bit depth : 16 bits
Compression mode : Lossy
Stream size : 30.4 MiB (11%)
Title : Goblin
Language : Russian
Default : No
Forced : No
Audio #4
ID : 5
Format : AAC
Format/Info : Advanced Audio Codec
Format profile : LC
Codec ID : A_AAC
Duration : 22mn 7s
Channel(s) : 2 channels
Channel positions : Front: L R
Sampling rate : 48.0 KHz
Compression mode : Lossy
Title : Original
Language : English
Default : No
Forced : No
Text #1
ID : 6
Format : UTF-8
Codec ID : S_TEXT/UTF8
Codec ID/Info : UTF-8 Plain Text
Title : Notabenoid
Language : Russian
Default : Yes
Forced : No
Text #2
ID : 7
Format : UTF-8
Codec ID : S_TEXT/UTF8
Codec ID/Info : UTF-8 Plain Text
Language : English
Default : No
Forced : No



1-ая серия выходила только с соотношением сторон 4:3, а все остальные с 16:9.



   Похожие торренты   Торрент   Размер 
В этой теме нет новых непрочитанных сообщений. Южный парк / South Park [S01-20] (1997-2016) WEB-DLRip 1080p HEVC | Paramount Comedy

7 | 4

61.48 ГБ

В этой теме нет новых непрочитанных сообщений. Южный Парк / South Park [S01-18] (1997-2015) WEB-DLRip | MTV

166 | 406

85.75 ГБ

В этой теме нет новых непрочитанных сообщений. Саут Парк / Южный Парк / South Park + OST [S01-12] (1997-2008) DVDRip, BDRip

12 | 68

53.73 ГБ

В этой теме нет новых непрочитанных сообщений. Южный Парк / South Park [S1] (1997) DVDRip

158 | 36

4.21 ГБ

В этой теме нет новых непрочитанных сообщений. Южный Парк / South Park [S01-13] (1997-2009) DVDRip | P2

27 | 111

48.24 ГБ

В этой теме нет новых непрочитанных сообщений. Южный Парк / South Park [S01-06] (1997-2002) DVDRip-AVC

72 | 25

17.85 ГБ

В этой теме нет новых непрочитанных сообщений. Южный парк - South Park [S08-14] WEB-DLRip-BDRip 720p

25 | 76

30.4 ГБ




Вы не можете начинать темы
Вы не можете отвечать на сообщения
Вы не можете редактировать свои сообщения
Вы не можете удалять свои сообщения
Вы не можете добавлять вложения

Перейти:  
Для Мосгорсуда, Роскомнадзора и рекламодателей: mosgorsud-torrent[собачка]yandex.ru
 Вход
ppkBB3cker v.2 © 2008-2014 @ PPK
[ Time : 0.041s | 16 Queries | GZIP : Off ]

cron