img image001 image001 image001 image001 image001 image001 image001 image001 image001 image001 image001 image001 image001 image001 image001

Planets Sun Sun Sun
Статистика раздачи
Автор: Nickolas3434 | Размер: 4.47 ГБ | Добавлен: 04 сен 2015
Раздают: 257    Качают: 2
Скачать торрент
Скачать торрент
Описание торрента

СообщениеДобавлено: 04 сен 2015 


Название: Механика сердца
Оригинальное название: Jack et la mécanique du coeur
Год выхода: 2013
Жанр: мультфильм, мюзикл, фэнтези, драма, приключения
Режиссер: Стефан Берла, Матиас Мальзьё
Роли озвучивали для французской версии: Матиас Мальзьё, Оливия Руис, Гран Кор Маляд, Жан Рошфор, Росси де Пальма, Бабет, Мари Винсент, Эмили Луазо, Артур Х, Дани, Ален Башунг.
Роли озвучивали для английской версии: Орландо Сил, Саманта Баркс, Гарри Садеги, Стефан Корникард, Джесси Бакли, Софи Эллис, Барбара Скафф, Мишель Фэйрли, Ричард Райдингс, Ховард Сэмюэлс.
О фильме: Джек родился в Эдинбурге, в «самый холодный день на свете», и сердце его мгновенно оледенело. Брошенного матерью мальчика усыновляет акушерка-волшебница, Докторша Мадлен. Она вставляет ему в грудь часы, которые помогают сердцу биться, но влюбляться Джеку нельзя — такого пылкого чувства хрупкая сердечная механика не выдержит. Однако подросший Джек невольно нарушает запрет, увидев на прогулке маленькую уличную певицу…
Страна: Франция, Бельгия
Продолжительность: 01:32:35
Перевод: Профессиональный (многоголосый закадровый) AlexFilm
Субтитры: русские форсированные на песни и полные (для английской и французской версий), французские

Файл
Формат: MKV
Качество: BDRip 720p
Видео: 1280x720p (1.78:1), 24,000 fps, MPEG-4 AVC ~4146 kbps avg, 0.187 bit/pixel
Аудио Rus: AC3, 6 ch, 48 kHz, 640 kbps - MVO AlexFilm (английская версия)
Аудио Rus: AC3, 6 ch, 48 kHz, 640 kbps - MVO AlexFilm (французская версия)
Аудио Eng: AC3, 6 ch, 48 kHz, 640 kbps - Dubbed
Аудио Fre: AC3, 6 ch, 48 kHz, 640 kbps - Original
Релиз группа:

Format : Matroska
Format version : Version 4 / Version 2
File size : 4.47 GiB
Duration : 1h 33mn 35s
Overall bit rate : 6 843 Kbps
Encoded date : UTC 2015-09-02 10:58:36
Writing application : mkvmerge v8.2.0 ('World of Adventure') 64bit
Writing library : libebml v1.3.1 + libmatroska v1.4.2
Video
ID : 1
Format : AVC
Format/Info : Advanced Video Codec
Format profile : High@L4.1
Format settings, CABAC : Yes
Format settings, ReFrames : 9 frames
Codec ID : V_MPEG4/ISO/AVC
Duration : 1h 33mn
Bit rate : 4 146 Kbps
Width : 1 280 pixels
Height : 720 pixels
Display aspect ratio : 16:9
Frame rate mode : Constant
Frame rate : 24.000 fps
Color space : YUV
Chroma subsampling : 4:2:0
Bit depth : 8 bits
Scan type : Progressive
Bits/(Pixel*Frame) : 0.187
Stream size : 2.71 GiB (61%)
Writing library : x264 core 148
Encoding settings : cabac=1 / ref=9 / deblock=1:-3:-3 / analyse=0x3:0x133 / me=umh / subme=11 / psy=1 / psy_rd=1.05:0.00 / mixed_ref=1 / me_range=48 / chroma_me=1 / trellis=2 / 8x8dct=1 / cqm=0 / deadzone=21,11 / fast_pskip=0 / chroma_qp_offset=-2 / threads=12 / lookahead_threads=2 / sliced_threads=0 / nr=0 / decimate=1 / interlaced=0 / bluray_compat=0 / constrained_intra=0 / bframes=8 / b_pyramid=2 / b_adapt=2 / b_bias=0 / direct=3 / weightb=1 / open_gop=0 / weightp=2 / keyint=240 / keyint_min=24 / scenecut=40 / intra_refresh=0 / rc=crf / mbtree=0 / crf=15.0 / qcomp=0.80 / qpmin=0 / qpmax=69 / qpstep=4 / ip_ratio=1.40 / pb_ratio=1.30 / aq=3:1.00
Default : Yes
Forced : No
Audio #1
ID : 2
Format : AC-3
Format/Info : Audio Coding 3
Mode extension : CM (complete main)
Format settings, Endianness : Big
Codec ID : A_AC3
Duration : 1h 33mn
Bit rate mode : Constant
Bit rate : 640 Kbps
Channel(s) : 6 channels
Channel positions : Front: L C R, Side: L R, LFE
Sampling rate : 48.0 KHz
Compression mode : Lossy
Stream size : 428 MiB (9%)
Title : MVO AlexFilm (English version)
Language : Russian
Default : Yes
Forced : No
Audio #2
ID : 3
Format : AC-3
Format/Info : Audio Coding 3
Mode extension : CM (complete main)
Format settings, Endianness : Big
Codec ID : A_AC3
Duration : 1h 33mn
Bit rate mode : Constant
Bit rate : 640 Kbps
Channel(s) : 6 channels
Channel positions : Front: L C R, Side: L R, LFE
Sampling rate : 48.0 KHz
Compression mode : Lossy
Stream size : 428 MiB (9%)
Title : MVO AlexFilm (French version)
Language : Russian
Default : No
Forced : No
Audio #3
ID : 4
Format : AC-3
Format/Info : Audio Coding 3
Mode extension : CM (complete main)
Format settings, Endianness : Big
Codec ID : A_AC3
Duration : 1h 33mn
Bit rate mode : Constant
Bit rate : 640 Kbps
Channel(s) : 6 channels
Channel positions : Front: L C R, Side: L R, LFE
Sampling rate : 48.0 KHz
Compression mode : Lossy
Stream size : 428 MiB (9%)
Title : English (Dubbed)
Language : English
Default : No
Forced : No
Audio #4
ID : 5
Format : AC-3
Format/Info : Audio Coding 3
Mode extension : CM (complete main)
Format settings, Endianness : Big
Codec ID : A_AC3
Duration : 1h 33mn
Bit rate mode : Constant
Bit rate : 640 Kbps
Channel(s) : 6 channels
Channel positions : Front: L C R, Side: L R, LFE
Sampling rate : 48.0 KHz
Compression mode : Lossy
Stream size : 428 MiB (9%)
Title : French (Original)
Language : French
Default : No
Forced : No
Text #1
ID : 6
Format : ASS
Codec ID : S_TEXT/ASS
Codec ID/Info : Advanced Sub Station Alpha
Compression mode : Lossless
Title : AlexFilm Forced (English version)
Language : Russian
Default : Yes
Forced : No
Text #2
ID : 7
Format : ASS
Codec ID : S_TEXT/ASS
Codec ID/Info : Advanced Sub Station Alpha
Compression mode : Lossless
Title : AlexFilm Forced (French version)
Language : Russian
Default : No
Forced : No
Text #3
ID : 8
Format : ASS
Codec ID : S_TEXT/ASS
Codec ID/Info : Advanced Sub Station Alpha
Compression mode : Lossless
Title : AlexFilm Full (English version)
Language : Russian
Default : No
Forced : No
Text #4
ID : 9
Format : ASS
Codec ID : S_TEXT/ASS
Codec ID/Info : Advanced Sub Station Alpha
Compression mode : Lossless
Title : AlexFilm Full (French version)
Language : Russian
Default : No
Forced : No
Text #5
ID : 10
Format : UTF-8
Codec ID : S_TEXT/UTF8
Codec ID/Info : UTF-8 Plain Text
Title : French (Original)
Language : French
Default : No
Forced : No
Menu
00:00:00.000 : :Chapter 1
00:08:17.250 : :Chapter 2
00:18:12.250 : :Chapter 3
00:26:47.000 : :Chapter 4
00:36:34.750 : :Chapter 5
00:45:16.125 : :Chapter 6
00:52:54.625 : :Chapter 7
01:03:16.500 : :Chapter 8
01:11:44.125 : :Chapter 9
01:20:41.125 : :Chapter 10
01:27:23.250 : :Chapter 11



   Похожие торренты   Торрент   Размер 
В этой теме нет новых непрочитанных сообщений. Механика сердца / Jack et la mécanique du coeur (2013) BDRip | AlexFilm

153 | 17

1.38 ГБ

В этой теме нет новых непрочитанных сообщений. Механика сердца / Jack et la mécanique du coeur (2013) BDRemux 1080p | AlexFilm

9 | 7

27.12 ГБ

В этой теме нет новых непрочитанных сообщений. Механика сердца / Jack et la mécanique du coeur (2013) BDRip 720p

565 | 7

2.19 ГБ

В этой теме нет новых непрочитанных сообщений. Механика сердца / Jack et la mécanique du coeur (2013) BDRip 720p | L2

285 | 89

3.52 ГБ

В этой теме нет новых непрочитанных сообщений. Механика сердца / Jack et la mécanique du coeur (2013) BDRip-AVC | L2

183 | 71

2.14 ГБ

В этой теме нет новых непрочитанных сообщений. Механика сердца / Jack et la mécanique du coeur (2013) BDRip 1080p | L2

83 | 26

7.91 ГБ

В этой теме нет новых непрочитанных сообщений. Механика сердца / Jack et la mécanique du coeur (2013) BDRip-AVC от ExKinoRay | P, L2

152 | 23

2.13 ГБ




Вы не можете начинать темы
Вы не можете отвечать на сообщения
Вы не можете редактировать свои сообщения
Вы не можете удалять свои сообщения
Вы не можете добавлять вложения

Перейти:  
Для Мосгорсуда, Роскомнадзора и рекламодателей: mosgorsud-torrent[собачка]yandex.ru
 Вход
ppkBB3cker v.2 © 2008-2014 @ PPK
[ Time : 0.041s | 14 Queries | GZIP : Off ]

Торрент трекер RUTOR.IN, Не можете зайти на rutor.org? Какой новый адрес рутор? Какое зеркало рутор? Не работает rutor.org и зеркала? Тогда наш торрент специально для вас. Rutor.in неофициальное зеркало rutor. В случае если у Вас заблокирован rutor или вдруг Вы не можете на него зайти, то Вы без труда сможете скачать бесплатно и без рекламы последние новинки кино, игр, сериалов и прочего у нас, на Rutor.in. Не нужно использовать прокси, чтобы зайти на рутор, достаточно воспользоваться нашим ресурсом. Все новые фильмы, игры, сериалы, книги и музыка за 2013 и 2014 годы через торрент бесплатно. Скачивайте фильмы в хорошем качестве, игры для пк, xbox, playstation без регистрации. У нас вы найдете новые Зарубежные сериалы и Русские сериалы 2013, 2014, 2015 годов. Оставайтесь с нами, качайте любимые фильмы, игры, сериалы, книги и музыку.