img image001 image001 image001 image001 image001 image001 image001 image001 image001 image001 image001 image001 image001 image001 image001

Planets Sun Sun Sun
Статистика раздачи
Автор: Nickolas3434 | Размер: 3.97 ГБ | Добавлен: 09 сен 2015
Раздают: 330    Качают: 36
Скачать торрент
Скачать торрент
Описание торрента

СообщениеДобавлено: 09 сен 2015 

Информация о фильме
Название: Кокоша – маленький дракон
Оригинальное название: Der kleine Drache Kokosnuss
Год выхода: 2014
Жанр: мультфильм
Режиссер: Хьюберт Вейланд, Нина Велс
В ролях: Каролин Кебекус, Клаудия Михельсен, Дастин Земмельрогге, Макс фон Гробен
О фильме: Дракончик Кокоша и его друг, дракончик Оскар, жили на Острове Драконов. Были они не такими, как все. Кокоша очень хотел стать летающим драконом, но летать у него не получалось. А Оскар, хищник по рождению, был убежденным вегетарианцем. Однажды вместе со своей подружкой, дикобразихой Матильдой, они решили отправиться в рискованное путешествие…
Выпущено: Германия / Caligari Film- und Fernsehproduktions, Zweites Deutsches Fernsehen (ZDF), Universum Film (UFA)
Продолжительность: 01:34:26
Озвучивание: Дублированное [Чистый звук]
Файл
Формат: MKV
Качество: BDRip 720p
Видео: 3528 kb/s, 1280x720
Аудио: Russian: AC3, 192 kb/s (2 ch) / English: / German: DTS, 1510 kb/s (6 ch)
Субтитры: German
Размер: 3.97 GB
Дополнительно: Сохранены оригинальные чаптеры
Скачать: Сэмпл


General
Unique ID : 236328627586605892407543186781512701618 (0xB1CB3CF166D904399F5B93DE193C96B2)
Complete name : /home9/teamkz/downloads/torrents/K0k0sha.m4l3njkij.dr4k0n.2014.D.BDRip 720р.mkv
Format : Matroska
Format version : Version 4 / Version 2
File size : 3.97 GiB
Duration : 1h 22mn
Overall bit rate : 6 874 Kbps
Encoded date : UTC 2015-09-08 14:54:51
Writing application : mkvmerge v8.2.0 ('World of Adventure') 64bit
Writing library : libebml v1.3.1 + libmatroska v1.4.2
DURATION : 01:22:36.992000000
NUMBER_OF_FRAMES : 154906
NUMBER_OF_BYTES : 118967808
_STATISTICS_WRITING_APP : mkvmerge v8.2.0 ('World of Adventure') 64bit
_STATISTICS_WRITING_DATE_UTC : 2015-09-08 14:54:51
_STATISTICS_TAGS : BPS DURATION NUMBER_OF_FRAMES NUMBER_OF_BYTES
Video
ID : 1
Format : AVC
Format/Info : Advanced Video Codec
Format profile : High@L4.1
Format settings, CABAC : Yes
Format settings, ReFrames : 5 frames
Codec ID : V_MPEG4/ISO/AVC
Duration : 1h 22mn
Bit rate : 3 528 Kbps
Width : 1 280 pixels
Height : 720 pixels
Display aspect ratio : 16:9
Frame rate mode : Constant
Frame rate : 24.000 fps
Color space : YUV
Chroma subsampling : 4:2:0
Bit depth : 8 bits
Scan type : Progressive
Bits/(Pixel*Frame) : 0.159
Stream size : 2.04 GiB (51%)
Writing library : x264 core 148 r2579 73ae2d1
Encoding settings : cabac=1 / ref=5 / deblock=1:-1:-1 / analyse=0x3:0x113 / me=hex / subme=9 / psy=1 / psy_rd=0.99:0.01 / mixed_ref=1 / me_range=16 / chroma_me=1 / trellis=2 / 8x8dct=1 / cqm=0 / deadzone=21,11 / fast_pskip=0 / chroma_qp_offset=-3 / threads=12 / lookahead_threads=1 / sliced_threads=0 / nr=0 / decimate=1 / interlaced=0 / bluray_compat=0 / constrained_intra=0 / bframes=3 / b_pyramid=2 / b_adapt=2 / b_bias=0 / direct=3 / weightb=1 / open_gop=0 / weightp=2 / keyint=240 / keyint_min=24 / scenecut=40 / intra_refresh=0 / rc_lookahead=40 / rc=crf / mbtree=1 / crf=16.0 / qcomp=0.60 / qpmin=0 / qpmax=69 / qpstep=4 / vbv_maxrate=62500 / vbv_bufsize=78125 / crf_max=0.0 / nal_hrd=none / filler=0 / ip_ratio=1.40 / aq=1:1.00
Language : English
Default : Yes
Forced : No
DURATION : 01:22:36.917000000
NUMBER_OF_FRAMES : 118966
NUMBER_OF_BYTES : 2265543924
_STATISTICS_WRITING_APP : mkvmerge v8.2.0 ('World of Adventure') 64bit
_STATISTICS_WRITING_DATE_UTC : 2015-09-08 14:54:51
_STATISTICS_TAGS : BPS DURATION NUMBER_OF_FRAMES NUMBER_OF_BYTES
Audio #1
ID : 2
Format : AC-3
Format/Info : Audio Coding 3
Mode extension : CM (complete main)
Format settings, Endianness : Big
Codec ID : A_AC3
Duration : 1h 22mn
Bit rate mode : Constant
Bit rate : 192 Kbps
Channel(s) : 2 channels
Channel positions : Front: L R
Sampling rate : 48.0 KHz
Bit depth : 16 bits
Compression mode : Lossy
Stream size : 113 MiB (3%)
Language : Russian
Default : Yes
Forced : No
Audio #2
ID : 3
Format : DTS
Format/Info : Digital Theater Systems
Mode : 16
Format settings, Endianness : Big
Codec ID : A_DTS
Duration : 1h 22mn
Bit rate mode : Constant
Bit rate : 1 509 Kbps
Channel(s) : 6 channels
Channel positions : Front: L C R, Side: L R, LFE
Sampling rate : 48.0 KHz
Bit depth : 24 bits
Compression mode : Lossy
Stream size : 892 MiB (22%)
Language : English
Default : No
Forced : No
Audio #3
ID : 4
Format : DTS
Format/Info : Digital Theater Systems
Mode : 16
Format settings, Endianness : Big
Codec ID : A_DTS
Duration : 1h 22mn
Bit rate mode : Constant
Bit rate : 1 509 Kbps
Channel(s) : 6 channels
Channel positions : Front: L C R, Side: L R, LFE
Sampling rate : 48.0 KHz
Bit depth : 24 bits
Compression mode : Lossy
Stream size : 892 MiB (22%)
Language : German
Default : No
Forced : No
Text
ID : 5
Format : VobSub
Muxing mode : zlib
Codec ID : S_VOBSUB
Codec ID/Info : The same subtitle format used on DVDs
Language : German
Default : No
Forced : No
Menu
00:00:00.000 : en:00:00:00.000
00:09:22.958 : en:00:09:22.958
00:21:31.250 : en:00:21:31.250
00:30:49.833 : en:00:30:49.833
00:43:24.875 : en:00:43:24.875
00:52:40.917 : en:00:52:40.917
01:01:40.833 : en:01:01:40.833
01:10:54.208 : en:01:10:54.208
01:17:12.417 : en:01:17:12.417













   Похожие торренты   Торрент   Размер 
В этой теме нет новых непрочитанных сообщений. Кокоша – маленький дракон / Der kleine Drache Kokosnuss (2014) HDRip | Чистый звук

921 | 66

1.37 ГБ

В этой теме нет новых непрочитанных сообщений. Кокоша – маленький дракон / Der kleine Drache Kokosnuss (2014) BDRip 720p | iTunes

81 | 8

4.08 ГБ

В этой теме нет новых непрочитанных сообщений. Кокоша – маленький дракон / Der kleine Drache Kokosnuss (2014) HDRip | iTunes

776 | 23

1.37 ГБ

В этой теме нет новых непрочитанных сообщений. Лили – настоящая ведьма: Магическая книга и дракон / Hexe Lilli: der Drache und das magische Buch (2008) BDRip 720p от CINEMANIA | P

0 | 2

4.26 ГБ

В этой теме нет новых непрочитанных сообщений. Магическая книга и дракон / Hexe Lilli, der Drache und das magische Buch (2009) DVDRip

3 | 6

698.29 МБ

В этой теме нет новых непрочитанных сообщений. Магическая книга и дракон / Hexe Lilli, der Drache und das magische Buch (2009) DVDRip R5

12 | 4

1.37 ГБ

В этой теме нет новых непрочитанных сообщений. Магическая книга и дракон / Hexe Lilli: Der Drache und das magische Buch (2008) HDRip от Киномагия | P

11 | 2

1.37 ГБ




Вы не можете начинать темы
Вы не можете отвечать на сообщения
Вы не можете редактировать свои сообщения
Вы не можете удалять свои сообщения
Вы не можете добавлять вложения

Перейти:  
Для Мосгорсуда, Роскомнадзора и рекламодателей: mosgorsud-torrent[собачка]yandex.ru
 Вход
ppkBB3cker v.2 © 2008-2014 @ PPK
[ Time : 0.044s | 16 Queries | GZIP : Off ]

cron