img image001 image001 image001 image001 image001 image001 image001 image001 image001 image001 image001 image001 image001 image001 image001

Planets Sun Sun Sun
Статистика раздачи
Автор: Nickolas3434 | Размер: 4.37 ГБ | Добавлен: 11 сен 2015
Раздают: 110    Качают: 8
Скачать торрент
Скачать торрент
Описание торрента

СообщениеДобавлено: 11 сен 2015 


Информация о фильме
Название: Лови волну!
Оригинальное название: Surf's Up
Год выхода: 2007
Жанр: мультфильм, комедия
Режиссер: Эш Браннон, Крис Бак
В ролях: Шайа ЛаБаф, Джефф Бриджес, Зои Дешанель, Джон Хидер, Джеймс Вудс, Дидрих Бадер, Марио Кантоне, Келли Слэйтер, Роб Мачадо, Сал Масикела
О фильме:
Кто из нас не мечтает поддаться течению, насладиться ласковыми волнами или, в конце концов, покорить водную стихию, когда морская пучина проявляет свой дикий темперамент? Главный герой комедийного анимационного фильма – молодой и амбициозный пингвин Коди - как раз только и грезит тем, чтобы обуздать самую высокую волну на предстоящем величайшем соревновании по серфингу. Благодаря съемочной группе, которая неустанно следит за восходящей звездой Коди, мы проникаем за кулисы элитного спорта. И, когда на своем пути к славе Коди встречает некогда знаменитого, но ныне вышедшего в тираж сёрфингиста Гика (Джеф Бриджес), он пересматривает свои взгляды на победу и понимает, что истинный победитель не всегда тот, кто пришел первым. Поддержат ли Коди друзья?

Страна: США
Студия: Sony Pictures Animation
Продолжительность: 01:25:31
Перевод: Дублированный
Файл
Кодек: x264
Качество: BDRip 720 от SuperMin
Видео: 1280x696 (1.85:1), 6872 kbps, 23.976 fps
Звук: Русский (AC-3, 6ch, 448 kbps)
Video
ID : 1
Format : AVC
Format/Info : Advanced Video Codec
Format profile : High@L4.1
Format settings, CABAC : Yes
Format settings, ReFrames : 9 frames
Codec ID : V_MPEG4/ISO/AVC
Duration : 1h 25mn
Bit rate : 6 872 Kbps
Width : 1 280 pixels
Height : 696 pixels
Display aspect ratio : 1.85:1
Frame rate mode : Constant
Frame rate : 23.976 fps
Color space : YUV
Chroma subsampling : 4:2:0
Bit depth : 8 bits
Scan type : Progressive
Bits/(Pixel*Frame) : 0.322
Stream size : 4.02 GiB (92%)
Writing library : x264 core 146 r2538 121396c
Encoding settings : cabac=1 / ref=9 / deblock=1:0:0 / analyse=0x3:0x113 / me=umh / subme=11 / psy=1 / psy_rd=1.00:0.00 / mixed_ref=1 / me_range=32 / chroma_me=1 / trellis=2 / 8x8dct=1 / cqm=0 / deadzone=21,11 / fast_pskip=0 / chroma_qp_offset=-2 / threads=3 / lookahead_threads=1 / sliced_threads=0 / nr=0 / decimate=1 / interlaced=0 / bluray_compat=0 / constrained_intra=0 / bframes=8 / b_pyramid=2 / b_adapt=2 / b_bias=0 / direct=1 / weightb=1 / open_gop=0 / weightp=2 / keyint=240 / keyint_min=22 / scenecut=40 / intra_refresh=0 / rc_lookahead=40 / rc=2pass / mbtree=1 / bitrate=6872 / ratetol=1.0 / qcomp=0.60 / qpmin=0 / qpmax=69 / qpstep=4 / cplxblur=20.0 / qblur=0.5 / vbv_maxrate=62500 / vbv_bufsize=78125 / nal_hrd=none / filler=0 / ip_ratio=1.40 / aq=1:0.80
Default : Yes
Forced : No
Audio
ID : 2
Format : AC-3
Format/Info : Audio Coding 3
Mode extension : CM (complete main)
Format settings, Endianness : Big
Codec ID : A_AC3
Duration : 1h 25mn
Bit rate mode : Constant
Bit rate : 448 Kbps
Channel count : 6 channels
Channel positions : Front: L C R, Side: L R, LFE
Sampling rate : 48.0 KHz
Bit depth : 16 bits
Compression mode : Lossy
Stream size : 274 MiB (6%)
Language : Russian
Default : Yes
Forced : No

x264 [info]: frame I:670 Avg QP:18.20 size:137959
x264 [info]: frame P:28103 Avg QP:21.24 size: 56011
x264 [info]: frame B:94250 Avg QP:23.24 size: 29057
x264 [info]: consecutive B-frames: 1.6% 3.0% 7.9% 34.7% 17.6% 24.4% 4.7% 5.7% 0.5%
encoded 123023 frames, 1.34 fps, 6868.18 kb/s



Релиз от: SuperMin



   Похожие торренты   Торрент   Размер 
В этой теме нет новых непрочитанных сообщений. Лови волну! / Surf's Up (2007) BDRip от HQCLUB

139 | 15

1.46 ГБ

В этой теме нет новых непрочитанных сообщений. Лови волну! / Surf's Up (2007) BDRip 1080p

139 | 9

4.37 ГБ

В этой теме нет новых непрочитанных сообщений. Лови волну! / Surf's Up (2007) BDRip-AVC от ExKinoRay | D, A

148 | 17

2.53 ГБ

В этой теме нет новых непрочитанных сообщений. Лови волну! / Surf's Up (2007) BDRip-AVC от HQCLUB | Лицензия

32 | 12

3.54 ГБ

В этой теме нет новых непрочитанных сообщений. Лови волну! / Surf's Up (2007) BDRip 1080p от ExKinoRay | D, A

31 | 6

8.08 ГБ

В этой теме нет новых непрочитанных сообщений. Лови волну! / Surf's Up (2007) BDRip 720p от Freeisland

5 | 3

2.99 ГБ

В этой теме нет новых непрочитанных сообщений. Лови волну! / Surf's Up (2007) HDRip-AVC | D

202 | 19

697.93 МБ




Вы не можете начинать темы
Вы не можете отвечать на сообщения
Вы не можете редактировать свои сообщения
Вы не можете удалять свои сообщения
Вы не можете добавлять вложения

Перейти:  
Для Мосгорсуда, Роскомнадзора и рекламодателей: mosgorsud-torrent[собачка]yandex.ru
 Вход
ppkBB3cker v.2 © 2008-2014 @ PPK
[ Time : 0.036s | 15 Queries | GZIP : On ]

Торрент трекер RUTOR.IN, Не можете зайти на rutor.org? Какой новый адрес рутор? Какое зеркало рутор? Не работает rutor.org и зеркала? Тогда наш торрент специально для вас. Rutor.in неофициальное зеркало rutor. В случае если у Вас заблокирован rutor или вдруг Вы не можете на него зайти, то Вы без труда сможете скачать бесплатно и без рекламы последние новинки кино, игр, сериалов и прочего у нас, на Rutor.in. Не нужно использовать прокси, чтобы зайти на рутор, достаточно воспользоваться нашим ресурсом. Все новые фильмы, игры, сериалы, книги и музыка за 2013 и 2014 годы через торрент бесплатно. Скачивайте фильмы в хорошем качестве, игры для пк, xbox, playstation без регистрации. У нас вы найдете новые Зарубежные сериалы и Русские сериалы 2013, 2014, 2015 годов. Оставайтесь с нами, качайте любимые фильмы, игры, сериалы, книги и музыку.