img image001 image001 image001 image001 image001 image001 image001 image001 image001 image001 image001 image001 image001 image001 image001

Planets Sun Sun Sun
Статистика раздачи
Автор: Nickolas3434 | Размер: 2.4 ГБ | Добавлен: 13 сен 2015
Раздают: 27    Качают: 3
Скачать торрент
Скачать торрент
Описание торрента

СообщениеДобавлено: 13 сен 2015 


Информация о фильме
Название : Повторная загрузка (Компьютерные войны)
Оригинальное название : ReBoot
Год выхода : 2001
Жанр : мультфильм, фантастика, боевик, триллер, комедия, приключения
Режиссеры : Дик Зондаг, Майкл Донован, Стив Болл
В ролях : Кэтлин Барр, Майкл Беняер, Гари Чок, Тони Джей, Шарон Александр, Пол Добсон, Стиви Вэлланс, Майкл Донован, Ширли Миллнер, Скотт МакНил

Описание : Продолжение мультэпопеи про сеть, где есть системы, люди, города, Суперкомпьютер и есть Мэйнфрэйм - место удивительных внутрисетевых событий. Супервирус Деймон повержена, Хексодесимал полностью фрагментирована, жизнь в Мейнфрейме налаживается. И жить бы да радоваться - но вдруг у всех наших героев возникают глубокие психологические проблемы: Два Боба не могут договориться о том, уто из них копия, Гличбоб пытается отделаться от Глитча, Дот не можеть выбрать за кого выйти за муж, у младшего Энзо продолжаются подростковые проблемы, а Старший Энзо не может жить без сложностей и продолжает тренироваться в условиях, максимально близких к игровой реальности, и, как выясняется, не напрасно.
Страна : Канада
Выпущено : Alliance Communications Corporation, BLT Productions, Mainframe Entertainment, ReBoot Productions Inc., YTV, Zondag Entertainment
Продолжительность : ~00:23:58 (серия)
Перевод : Любительский (одноголосый, закадровый) озвучивал: Lutini
Автор рипа : DarkDream
Релиз : Страник 2.0
Файл
Формат видео : MKV
Качество : DVDRip
Видео : AVC, 848x480 (16:9), 23.976 fps, ~1406 Kbps
Звук 1: Русский, AC3, 48.0 KHz, 2 ch, ~128 Kbps
Звук 2: Английский, MP3, 44.1 KHz, 2 ch, ~256 Kbps
Субтитры : нет



4х01 Daemon Rising ("Восхождение Деймон")
4х02 Cross Nodes ("Перекрещивающиеся узлы")
4х03 What's Love Got to Do With It? ("При чем тут любовь?")
4х04 Sacrifice ("Жертвоприношение")
4х05 My Two Bobs ("Мои два Боба")
4x06 Life's a Glitch ("Жизнь есть глюк")
4x07 Null Bot of the Bride ("Нуль-бот невесты")
4x08 Crouching Binome, Hidden Virus ("Крадущийся бином, затаившийся вирус")
General
Unique ID : 221054399832616274813201903260409995795 (0xA64D875F47DD6DB387DBBB081B8F2213)
Complete name : E:/Torrent_2/ReBoot [s04] (DVDRip-AVC, RUS [VO] ENG) [DarkDream & Stranik 2.0]/4.01. Daemon Rising.mkv
Format : Matroska
Format version : Version 2
File size : 307 MiB
Duration : 23mn 58s
Overall bit rate : 1 792 Kbps
Encoded date : UTC 2015-09-09 09:14:12
Writing application : mkvmerge v5.5.0 ('Healer') built on Apr 6 2012 21:43:24
Writing library : libebml v1.2.3 + libmatroska v1.3.0
Video #1
ID : 1
Format : AVC
Format/Info : Advanced Video Codec
Format profile : High@L3.0
Format settings, CABAC : Yes
Format settings, ReFrames : 5 frames
Codec ID : V_MPEG4/ISO/AVC
Duration : 23mn 58s
Bit rate : 1 406 Kbps
Width : 848 pixels
Height : 480 pixels
Display aspect ratio : 16:9
Frame rate mode : Constant
Frame rate : 23.976 fps
Color space : YUV
Chroma subsampling : 4:2:0
Bit depth : 8 bits
Scan type : Progressive
Bits/(Pixel*Frame) : 0.144
Stream size : 235 MiB (77%)
Title : ENCODED BY DARKDREAM
Writing library : x264 core 115 r1995 c1e60b9
Encoding settings : cabac=1 / ref=5 / deblock=1:1:1 / analyse=0x3:0x133 / me=umh / subme=7 / psy=1 / psy_rd=0.40:0.00 / mixed_ref=1 / me_range=16 / chroma_me=1 / trellis=2 / 8x8dct=1 / cqm=0 / deadzone=21,11 / fast_pskip=0 / chroma_qp_offset=-2 / threads=3 / sliced_threads=0 / nr=0 / decimate=0 / interlaced=0 / bluray_compat=0 / constrained_intra=0 / bframes=3 / b_pyramid=2 / b_adapt=2 / b_bias=0 / direct=3 / weightb=1 / open_gop=0 / weightp=2 / keyint=250 / keyint_min=23 / scenecut=40 / intra_refresh=0 / rc_lookahead=50 / rc=2pass / mbtree=1 / bitrate=1406 / ratetol=1.0 / qcomp=0.60 / qpmin=10 / qpmax=51 / qpstep=4 / cplxblur=20.0 / qblur=0.5 / ip_ratio=1.40 / aq=1:1.00
Language : Japanese
Default : Yes
Forced : No
Audio #2
ID : 2
Format : AC-3
Format/Info : Audio Coding 3
Mode extension : CM (complete main)
Format settings, Endianness : Big
Codec ID : A_AC3
Duration : 23mn 58s
Bit rate mode : Constant
Bit rate : 128 Kbps
Channel(s) : 2 channels
Channel positions : Front: L R
Sampling rate : 48.0 KHz
Bit depth : 16 bits
Compression mode : Lossy
Stream size : 21.9 MiB (7%)
Title : Lutini
Language : Russian
Default : Yes
Forced : No
Audio #3
ID : 3
Format : MPEG Audio
Format version : Version 1
Format profile : Layer 3
Mode : Joint stereo
Codec ID : A_MPEG/L3
Codec ID/Hint : MP3
Duration : 23mn 58s
Bit rate mode : Constant
Bit rate : 256 Kbps
Channel(s) : 2 channels
Sampling rate : 44.1 KHz
Compression mode : Lossy
Delay relative to video : 19ms
Stream size : 43.9 MiB (14%)
Writing library : LAME3.99.5
Language : English
Default : No
Forced : No





   Похожие торренты   Торрент   Размер 
В этой теме нет новых непрочитанных сообщений. Повторная загрузка / Компьютерные войны / ReBoot [S04] (2001) DVDRip | L1

4 | 1

2.15 ГБ

В этой теме нет новых непрочитанных сообщений. Повторная загрузка / Компьютерные войны / ReBoot [S01-03] (1994-1998) DVDRip-AVC | D, P

55 | 7

12.4 ГБ

В этой теме нет новых непрочитанных сообщений. Повторная загрузка / Компьютерные войны / ReBoot [S01-03] (1994-1998) DVDRip

11 | 2

7.34 ГБ

В этой теме нет новых непрочитанных сообщений. OST - Повторная Загрузка / Компьютерные войны / ReBoot (1994-2002) MP3 от Stranik 2.0

2 | 2

55.43 МБ

В этой теме нет новых непрочитанных сообщений. Перемотка вперёд: Создание Повторной Загрузки / ReBoot. Fast Forward - The Making of Reboot (1995) VHSRip | L1

0 | 2

365.28 МБ

В этой теме нет новых непрочитанных сообщений. BBC: Сражения Второй мировой войны / BBC: Battlefields [01-04 серии из 04] (2001) DVDRip от -=HD-NET=-

123 | 13

2.36 ГБ

В этой теме нет новых непрочитанных сообщений. Великий Медичи: Рыцарь войны / Il mestiere delle armi (2001) DVDRip от Киномагия l P2

7 | 7

1.45 ГБ




Вы не можете начинать темы
Вы не можете отвечать на сообщения
Вы не можете редактировать свои сообщения
Вы не можете удалять свои сообщения
Вы не можете добавлять вложения

Перейти:  
Для Мосгорсуда, Роскомнадзора и рекламодателей: mosgorsud-torrent[собачка]yandex.ru
 Вход
ppkBB3cker v.2 © 2008-2014 @ PPK
[ Time : 0.044s | 17 Queries | GZIP : Off ]

Торрент трекер RUTOR.IN, Не можете зайти на rutor.org? Какой новый адрес рутор? Какое зеркало рутор? Не работает rutor.org и зеркала? Тогда наш торрент специально для вас. Rutor.in неофициальное зеркало rutor. В случае если у Вас заблокирован rutor или вдруг Вы не можете на него зайти, то Вы без труда сможете скачать бесплатно и без рекламы последние новинки кино, игр, сериалов и прочего у нас, на Rutor.in. Не нужно использовать прокси, чтобы зайти на рутор, достаточно воспользоваться нашим ресурсом. Все новые фильмы, игры, сериалы, книги и музыка за 2013 и 2014 годы через торрент бесплатно. Скачивайте фильмы в хорошем качестве, игры для пк, xbox, playstation без регистрации. У нас вы найдете новые Зарубежные сериалы и Русские сериалы 2013, 2014, 2015 годов. Оставайтесь с нами, качайте любимые фильмы, игры, сериалы, книги и музыку.
cron