img image001 image001 image001 image001 image001 image001 image001 image001 image001 image001 image001 image001 image001 image001 image001

Planets Sun Sun Sun
Статистика раздачи
Автор: Nickolas3434 | Размер: 4.38 ГБ | Добавлен: 18 сен 2015
Раздают: 90    Качают: 6
Скачать торрент
Скачать торрент
Описание торрента

СообщениеДобавлено: 18 сен 2015 


Информация о фильме
Название: Ранго
Оригинальное название: Rango
Год выхода: 2011
Жанр: Мультфильм, Комедия, Приключения, Вестерн
В ролях: Джонни Депп, Айла Фишер, Эбигейл Бреслин, Нед Битти, Альфред Молина, Билл Найи, Стивен Рут, Гарри Дин Стэнтон, Тимоти Олифант, Рэй Уинстоун
Роли дублировали: Александр Гаврилин, Мария Иващенко, Нюша Шурочкина, Борис Клюев, Андрей Ярославцев
О фильме:
Ранго — хамелеон, который живет в террариуме и считает себя героем, которому, к сожалению, никак не удается проявить свое бесстрашие. Но когда он внезапно оказывается в городке Грязь, у него появляется такая возможность. Ранго провозглашает себя борцом за справедливость и начинает вести себя как шериф на Диком Западе. Он еще не знает, что быть «хорошим парнем» в этих краях не самая завидная участь…

Страна: США
Студия: GK Films
Продолжительность: 01:47:18
Перевод: Профессиональный (полное дублирование)
Файл
Кодек: H.264
Качество: BDRip 720 от SuperMin
Видео: 1280х536 (2.40:1), 5091 kbps, 23.976 fps
Звук: Русский (AC-3, 6ch, 640 kbps)
x264 [info]: frame I:1363 Avg QP:17.91 size:120495
x264 [info]: frame P:35579 Avg QP:19.43 size: 50400
x264 [info]: frame B:117432 Avg QP:22.29 size: 19010
x264 [info]: consecutive B-frames: 2.3% 2.6% 8.9% 31.1% 19.7% 28.9% 4.6% 1.1% 0.8%
encoded 154374 frames, 1.58 fps, 5205.79 kb/s

Video
ID : 1
Format : AVC
Format/Info : Advanced Video Codec
Format profile : High@L4.1
Format settings, CABAC : Yes
Format settings, ReFrames : 10 frames
Codec ID : V_MPEG4/ISO/AVC
Duration : 1h 47mn
Bit rate : 5 091 Kbps
Width : 1 280 pixels
Height : 536 pixels
Display aspect ratio : 2.40:1
Frame rate mode : Constant
Frame rate : 23.976 fps
Color space : YUV
Chroma subsampling : 4:2:0
Bit depth : 8 bits
Scan type : Progressive
Bits/(Pixel*Frame) : 0.310
Stream size : 3.82 GiB (87%)
Writing library : x264 core 146 r2538 121396c
Encoding settings : cabac=1 / ref=10 / deblock=1:0:0 / analyse=0x3:0x113 / me=umh / subme=10 / psy=1 / psy_rd=1.00:0.00 / mixed_ref=1 / me_range=32 / chroma_me=1 / trellis=2 / 8x8dct=1 / cqm=0 / deadzone=21,11 / fast_pskip=0 / chroma_qp_offset=-2 / threads=3 / lookahead_threads=1 / sliced_threads=0 / nr=0 / decimate=1 / interlaced=0 / bluray_compat=0 / constrained_intra=0 / bframes=8 / b_pyramid=2 / b_adapt=2 / b_bias=0 / direct=1 / weightb=1 / open_gop=0 / weightp=2 / keyint=240 / keyint_min=23 / scenecut=40 / intra_refresh=0 / rc_lookahead=40 / rc=crf / mbtree=0 / crf=18.0 / qcomp=0.60 / qpmin=0 / qpmax=69 / qpstep=4 / vbv_maxrate=50000 / vbv_bufsize=62500 / crf_max=0.0 / nal_hrd=none / filler=0 / ip_ratio=1.40 / pb_ratio=1.30 / aq=1:1.00
Default : Yes
Forced : No
Audio
ID : 2
Format : AC-3
Format/Info : Audio Coding 3
Mode extension : CM (complete main)
Format settings, Endianness : Big
Codec ID : A_AC3
Duration : 1h 47mn
Bit rate mode : Constant
Bit rate : 640 Kbps
Channel count : 6 channels
Channel positions : Front: L C R, Side: L R, LFE
Sampling rate : 48.0 KHz
Bit depth : 16 bits
Compression mode : Lossy
Stream size : 491 MiB (11%)
Default : Yes
Forced : No




   Похожие торренты   Торрент   Размер 
В этой теме нет новых непрочитанных сообщений. Ранго / Rango (2011) BDRip от HQCLUB | Театральная версия / Theatrical Cut

3 | 4

2.18 ГБ

В этой теме нет новых непрочитанных сообщений. Ранго / Rango (2011) BDRip от HELLYWOOD | Театральная версия / Theatrical Cut

3 | 10

2.93 ГБ

В этой теме нет новых непрочитанных сообщений. Ранго / Rango (2011) HDRip | Театральная версия

0 | 5

1.35 ГБ

В этой теме нет новых непрочитанных сообщений. Ранго / Rango (2011) BDRip 720p от HELLYWOOD | Расширенная версия | Лицензия

157 | 17

5.86 ГБ

В этой теме нет новых непрочитанных сообщений. Ранго / Rango (2011) BDRip 1080p | Расширенная версия

102 | 20

10 ГБ

В этой теме нет новых непрочитанных сообщений. Ранго / Rango (2011) BDRip-AVC | Расширенная версия | iPad

21 | 6

2.03 ГБ

В этой теме нет новых непрочитанных сообщений. Ранго / Rango (2011) BDRip от HQCLUB | Расширенная версия / Extended Cut

61 | 15

2.18 ГБ




Вы не можете начинать темы
Вы не можете отвечать на сообщения
Вы не можете редактировать свои сообщения
Вы не можете удалять свои сообщения
Вы не можете добавлять вложения

Перейти:  
Для Мосгорсуда, Роскомнадзора и рекламодателей: mosgorsud-torrent[собачка]yandex.ru
 Вход
ppkBB3cker v.2 © 2008-2014 @ PPK
[ Time : 0.049s | 15 Queries | GZIP : Off ]

Торрент трекер RUTOR.IN, Не можете зайти на rutor.org? Какой новый адрес рутор? Какое зеркало рутор? Не работает rutor.org и зеркала? Тогда наш торрент специально для вас. Rutor.in неофициальное зеркало rutor. В случае если у Вас заблокирован rutor или вдруг Вы не можете на него зайти, то Вы без труда сможете скачать бесплатно и без рекламы последние новинки кино, игр, сериалов и прочего у нас, на Rutor.in. Не нужно использовать прокси, чтобы зайти на рутор, достаточно воспользоваться нашим ресурсом. Все новые фильмы, игры, сериалы, книги и музыка за 2013 и 2014 годы через торрент бесплатно. Скачивайте фильмы в хорошем качестве, игры для пк, xbox, playstation без регистрации. У нас вы найдете новые Зарубежные сериалы и Русские сериалы 2013, 2014, 2015 годов. Оставайтесь с нами, качайте любимые фильмы, игры, сериалы, книги и музыку.
cron